  0
SECTION
  2
HEADER
  9
$ACADVER
  1
AC1015
  9
$ACADMAINTVER
 70
     6
  9
$DWGCODEPAGE
  3
ANSI_1252
  9
$INSBASE
 10
0.0
 20
0.0
 30
0.0
  9
$EXTMIN
 10
-111.2626742238761
 20
-121.523205552138
 30
0.0
  9
$EXTMAX
 10
185.737325776124
 20
88.47679444786212
 30
0.0
  9
$LIMMIN
 10
0.0
 20
0.0
  9
$LIMMAX
 10
12.0
 20
9.0
  9
$ORTHOMODE
 70
     0
  9
$REGENMODE
 70
     1
  9
$FILLMODE
 70
     1
  9
$QTEXTMODE
 70
     0
  9
$MIRRTEXT
 70
     1
  9
$LTSCALE
 40
1.0
  9
$ATTMODE
 70
     1
  9
$TEXTSIZE
 40
0.2
  9
$TRACEWID
 40
0.05
  9
$TEXTSTYLE
  7
Standard
  9
$CLAYER
  8
0
  9
$CELTYPE
  6
ByLayer
  9
$CECOLOR
 62
   256
  9
$CELTSCALE
 40
1.0
  9
$DISPSILH
 70
     0
  9
$DIMSCALE
 40
1.0
  9
$DIMASZ
 40
0.18
  9
$DIMEXO
 40
0.0625
  9
$DIMDLI
 40
0.38
  9
$DIMRND
 40
0.0
  9
$DIMDLE
 40
0.0
  9
$DIMEXE
 40
0.18
  9
$DIMTP
 40
0.0
  9
$DIMTM
 40
0.0
  9
$DIMTXT
 40
0.18
  9
$DIMCEN
 40
0.09
  9
$DIMTSZ
 40
0.0
  9
$DIMTOL
 70
     0
  9
$DIMLIM
 70
     0
  9
$DIMTIH
 70
     1
  9
$DIMTOH
 70
     1
  9
$DIMSE1
 70
     0
  9
$DIMSE2
 70
     0
  9
$DIMTAD
 70
     0
  9
$DIMZIN
 70
     0
  9
$DIMBLK
  1

  9
$DIMASO
 70
     1
  9
$DIMSHO
 70
     1
  9
$DIMPOST
  1

  9
$DIMAPOST
  1

  9
$DIMALT
 70
     0
  9
$DIMALTD
 70
     2
  9
$DIMALTF
 40
25.4
  9
$DIMLFAC
 40
1.0
  9
$DIMTOFL
 70
     0
  9
$DIMTVP
 40
0.0
  9
$DIMTIX
 70
     0
  9
$DIMSOXD
 70
     0
  9
$DIMSAH
 70
     0
  9
$DIMBLK1
  1

  9
$DIMBLK2
  1

  9
$DIMSTYLE
  2
Standard
  9
$DIMCLRD
 70
     0
  9
$DIMCLRE
 70
     0
  9
$DIMCLRT
 70
     0
  9
$DIMTFAC
 40
1.0
  9
$DIMGAP
 40
0.09
  9
$DIMJUST
 70
     0
  9
$DIMSD1
 70
     0
  9
$DIMSD2
 70
     0
  9
$DIMTOLJ
 70
     1
  9
$DIMTZIN
 70
     0
  9
$DIMALTZ
 70
     0
  9
$DIMALTTZ
 70
     0
  9
$DIMUPT
 70
     0
  9
$DIMDEC
 70
     4
  9
$DIMTDEC
 70
     4
  9
$DIMALTU
 70
     2
  9
$DIMALTTD
 70
     2
  9
$DIMTXSTY
  7
Standard
  9
$DIMAUNIT
 70
     0
  9
$DIMADEC
 70
     0
  9
$DIMALTRND
 40
0.0
  9
$DIMAZIN
 70
     0
  9
$DIMDSEP
 70
    46
  9
$DIMATFIT
 70
     3
  9
$DIMFRAC
 70
     0
  9
$DIMLDRBLK
  1

  9
$DIMLUNIT
 70
     2
  9
$DIMLWD
 70
    -2
  9
$DIMLWE
 70
    -2
  9
$DIMTMOVE
 70
     0
  9
$LUNITS
 70
     2
  9
$LUPREC
 70
     4
  9
$SKETCHINC
 40
0.1
  9
$FILLETRAD
 40
0.5
  9
$AUNITS
 70
     0
  9
$AUPREC
 70
     0
  9
$MENU
  1
.
  9
$ELEVATION
 40
0.0
  9
$PELEVATION
 40
0.0
  9
$THICKNESS
 40
0.0
  9
$LIMCHECK
 70
     0
  9
$CHAMFERA
 40
0.5
  9
$CHAMFERB
 40
0.5
  9
$CHAMFERC
 40
1.0
  9
$CHAMFERD
 40
0.0
  9
$SKPOLY
 70
     0
  9
$TDCREATE
 40
2456997.555431782
  9
$TDUCREATE
 40
2456997.513765116
  9
$TDUPDATE
 40
2456997.555431956
  9
$TDUUPDATE
 40
2456997.513765289
  9
$TDINDWG
 40
0.0000000116
  9
$TDUSRTIMER
 40
0.0000000116
  9
$USRTIMER
 70
     1
  9
$ANGBASE
 50
0.0
  9
$ANGDIR
 70
     0
  9
$PDMODE
 70
     0
  9
$PDSIZE
 40
0.0
  9
$PLINEWID
 40
0.0
  9
$SPLFRAME
 70
     0
  9
$SPLINETYPE
 70
     6
  9
$SPLINESEGS
 70
     8
  9
$HANDSEED
  5
3C6
  9
$SURFTAB1
 70
     6
  9
$SURFTAB2
 70
     6
  9
$SURFTYPE
 70
     6
  9
$SURFU
 70
     6
  9
$SURFV
 70
     6
  9
$UCSBASE
  2

  9
$UCSNAME
  2

  9
$UCSORG
 10
0.0
 20
0.0
 30
0.0
  9
$UCSXDIR
 10
1.0
 20
0.0
 30
0.0
  9
$UCSYDIR
 10
0.0
 20
1.0
 30
0.0
  9
$UCSORTHOREF
  2

  9
$UCSORTHOVIEW
 70
     0
  9
$UCSORGTOP
 10
0.0
 20
0.0
 30
0.0
  9
$UCSORGBOTTOM
 10
0.0
 20
0.0
 30
0.0
  9
$UCSORGLEFT
 10
0.0
 20
0.0
 30
0.0
  9
$UCSORGRIGHT
 10
0.0
 20
0.0
 30
0.0
  9
$UCSORGFRONT
 10
0.0
 20
0.0
 30
0.0
  9
$UCSORGBACK
 10
0.0
 20
0.0
 30
0.0
  9
$PUCSBASE
  2

  9
$PUCSNAME
  2

  9
$PUCSORG
 10
0.0
 20
0.0
 30
0.0
  9
$PUCSXDIR
 10
1.0
 20
0.0
 30
0.0
  9
$PUCSYDIR
 10
0.0
 20
1.0
 30
0.0
  9
$PUCSORTHOREF
  2

  9
$PUCSORTHOVIEW
 70
     0
  9
$PUCSORGTOP
 10
0.0
 20
0.0
 30
0.0
  9
$PUCSORGBOTTOM
 10
0.0
 20
0.0
 30
0.0
  9
$PUCSORGLEFT
 10
0.0
 20
0.0
 30
0.0
  9
$PUCSORGRIGHT
 10
0.0
 20
0.0
 30
0.0
  9
$PUCSORGFRONT
 10
0.0
 20
0.0
 30
0.0
  9
$PUCSORGBACK
 10
0.0
 20
0.0
 30
0.0
  9
$USERI1
 70
     0
  9
$USERI2
 70
     0
  9
$USERI3
 70
     0
  9
$USERI4
 70
     0
  9
$USERI5
 70
     0
  9
$USERR1
 40
18.1
  9
$USERR2
 40
0.0
  9
$USERR3
 40
0.0
  9
$USERR4
 40
0.0
  9
$USERR5
 40
0.0
  9
$WORLDVIEW
 70
     1
  9
$SHADEDGE
 70
     3
  9
$SHADEDIF
 70
    70
  9
$TILEMODE
 70
     1
  9
$MAXACTVP
 70
    64
  9
$PINSBASE
 10
0.0
 20
0.0
 30
0.0
  9
$PLIMCHECK
 70
     0
  9
$PEXTMIN
 10
1.00000000000000E+20
 20
1.00000000000000E+20
 30
1.00000000000000E+20
  9
$PEXTMAX
 10
-1.00000000000000E+20
 20
-1.00000000000000E+20
 30
-1.00000000000000E+20
  9
$PLIMMIN
 10
0.0
 20
0.0
  9
$PLIMMAX
 10
12.0
 20
9.0
  9
$UNITMODE
 70
     0
  9
$VISRETAIN
 70
     1
  9
$PLINEGEN
 70
     0
  9
$PSLTSCALE
 70
     1
  9
$TREEDEPTH
 70
  3020
  9
$CMLSTYLE
  2
Standard
  9
$CMLJUST
 70
     0
  9
$CMLSCALE
 40
1.0
  9
$PROXYGRAPHICS
 70
     1
  9
$MEASUREMENT
 70
     1
  9
$CELWEIGHT
370
    -1
  9
$ENDCAPS
280
     0
  9
$JOINSTYLE
280
     0
  9
$LWDISPLAY
290
     0
  9
$INSUNITS
 70
     4
  9
$HYPERLINKBASE
  1

  9
$STYLESHEET
  1

  9
$XEDIT
290
     1
  9
$CEPSNTYPE
380
     0
  9
$PSTYLEMODE
290
     1
  9
$FINGERPRINTGUID
  2
{67029A36-EB3A-4E49-9469-F6BD4F7C7436}
  9
$VERSIONGUID
  2
{FAEB1C32-E019-11D5-929B-00C0DF256EC4}
  9
$EXTNAMES
290
     1
  9
$PSVPSCALE
 40
0.0
  9
$OLESTARTUP
290
     0
  0
ENDSEC
  0
SECTION
  2
CLASSES
  0
CLASS
  1
ACDBDICTIONARYWDFLT
  2
AcDbDictionaryWithDefault
  3
ObjectDBX Classes
 90
        0
280
     0
281
     0
  0
CLASS
  1
VISUALSTYLE
  2
AcDbVisualStyle
  3
ObjectDBX Classes
 90
     4095
280
     0
281
     0
  0
CLASS
  1
MATERIAL
  2
AcDbMaterial
  3
ObjectDBX Classes
 90
     1153
280
     0
281
     0
  0
CLASS
  1
DICTIONARYVAR
  2
AcDbDictionaryVar
  3
ObjectDBX Classes
 90
        0
280
     0
281
     0
  0
CLASS
  1
ACDBPLACEHOLDER
  2
AcDbPlaceHolder
  3
ObjectDBX Classes
 90
        0
280
     0
281
     0
  0
CLASS
  1
LAYOUT
  2
AcDbLayout
  3
ObjectDBX Classes
 90
        0
280
     0
281
     0
  0
ENDSEC
  0
SECTION
  2
TABLES
  0
TABLE
  2
VPORT
  5
8
330
0
100
AcDbSymbolTable
 70
     1
  0
VPORT
  5
29
330
8
100
AcDbSymbolTableRecord
100
AcDbViewportTableRecord
  2
*Active
 70
     0
 10
0.0
 20
0.0
 11
1.0
 21
1.0
 12
37.23732577612395
 22
-16.52320555213794
 13
0.0
 23
0.0
 14
0.5
 24
0.5
 15
0.5
 25
0.5
 16
0.0
 26
0.0
 36
1.0
 17
0.0
 27
0.0
 37
0.0
 40
231.0000000000001
 41
1.60267857142857
 42
50.0
 43
0.0
 44
0.0
 50
0.0
 51
0.0
 71
     0
 72
   100
 73
     1
 74
     3
 75
     0
 76
     0
 77
     0
 78
     0
281
     0
 65
     1
110
0.0
120
0.0
130
0.0
111
1.0
121
0.0
131
0.0
112
0.0
122
1.0
132
0.0
 79
     0
146
0.0
  0
ENDTAB
  0
TABLE
  2
LTYPE
  5
5
330
0
100
AcDbSymbolTable
 70
     8
  0
LTYPE
  5
14
330
5
100
AcDbSymbolTableRecord
100
AcDbLinetypeTableRecord
  2
ByBlock
 70
     0
  3

 72
    65
 73
     0
 40
0.0
  0
LTYPE
  5
15
330
5
100
AcDbSymbolTableRecord
100
AcDbLinetypeTableRecord
  2
ByLayer
 70
     0
  3

 72
    65
 73
     0
 40
0.0
  0
LTYPE
  5
16
330
5
100
AcDbSymbolTableRecord
100
AcDbLinetypeTableRecord
  2
Continuous
 70
     0
  3
Solid line
 72
    65
 73
     0
 40
0.0
  0
LTYPE
  5
3F
330
5
100
AcDbSymbolTableRecord
100
AcDbLinetypeTableRecord
  2
DASHED
 70
     0
  3
Dashed
 72
    65
 73
     2
 40
15.0
 49
7.0
 74
     0
 49
-8.0
 74
     0
  0
LTYPE
  5
40
330
5
100
AcDbSymbolTableRecord
100
AcDbLinetypeTableRecord
  2
DOTTED
 70
     0
  3
Dotted
 72
    65
 73
     2
 40
1.0
 49
0.0
 74
     0
 49
-1.0
 74
     0
  0
LTYPE
  5
41
330
5
100
AcDbSymbolTableRecord
100
AcDbLinetypeTableRecord
  2
DOT_CENTER
 70
     0
  3
Dot_Center
 72
    65
 73
     4
 40
14.0
 49
12.0
 74
     0
 49
-1.0
 74
     0
 49
0.0
 74
     0
 49
-1.0
 74
     0
  0
LTYPE
  5
42
330
5
100
AcDbSymbolTableRecord
100
AcDbLinetypeTableRecord
  2
LONG_DASHED
 70
     0
  3
Long_Dashed
 72
    65
 73
     2
 40
15.0
 49
10.0
 74
     0
 49
-5.0
 74
     0
  0
LTYPE
  5
43
330
5
100
AcDbSymbolTableRecord
100
AcDbLinetypeTableRecord
  2
DASH_CENTER
 70
     0
  3
Dash_Center
 72
    65
 73
     4
 40
14.0
 49
11.0
 74
     0
 49
-1.0
 74
     0
 49
1.0
 74
     0
 49
-1.0
 74
     0
  0
LTYPE
  5
44
330
5
100
AcDbSymbolTableRecord
100
AcDbLinetypeTableRecord
  2
PHANTOM
 70
     0
  3
Phantom
 72
    65
 73
     6
 40
13.0
 49
10.0
 74
     0
 49
-1.0
 74
     0
 49
0.0
 74
     0
 49
-1.0
 74
     0
 49
0.0
 74
     0
 49
-1.0
 74
     0
  0
LTYPE
  5
45
330
5
100
AcDbSymbolTableRecord
100
AcDbLinetypeTableRecord
  2
CENTER_DASH_DASH
 70
     0
  3
Center_Dash_Dash
 72
    65
 73
     6
 40
14.0
 49
9.0
 74
     0
 49
-1.0
 74
     0
 49
1.0
 74
     0
 49
-1.0
 74
     0
 49
1.0
 74
     0
 49
-1.0
 74
     0
  0
ENDTAB
  0
TABLE
  2
LAYER
  5
2
330
0
100
AcDbSymbolTable
 70
     2
  0
LAYER
  5
10
330
2
100
AcDbSymbolTableRecord
100
AcDbLayerTableRecord
  2
0
 70
     0
 62
     7
  6
Continuous
370
    -3
390
F
  0
LAYER
  5
46
330
2
100
AcDbSymbolTableRecord
100
AcDbLayerTableRecord
  2
1
 70
     0
 62
     7
  6
Continuous
370
    -3
390
F
  0
ENDTAB
  0
TABLE
  2
STYLE
  5
3
330
0
100
AcDbSymbolTable
 70
     3
  0
STYLE
  5
11
330
3
100
AcDbSymbolTableRecord
100
AcDbTextStyleTableRecord
  2
Standard
 70
     0
 40
0.0
 41
1.0
 50
0.0
 71
     0
 42
0.2
  3
txt
  4

  0
STYLE
  5
361
330
3
100
AcDbSymbolTableRecord
100
AcDbTextStyleTableRecord
  2
CONVERTER_11
 70
     0
 40
0.0
 41
1.2
 50
0.0
 71
     0
 42
0.2
  3
ARIAL.TTF
  4

  0
STYLE
  5
370
330
3
100
AcDbSymbolTableRecord
100
AcDbTextStyleTableRecord
  2
CONVERTER_12
 70
     0
 40
0.0
 41
0.95
 50
0.0
 71
     0
 42
0.2
  3
simplex.shx
  4

  0
ENDTAB
  0
TABLE
  2
VIEW
  5
6
330
0
100
AcDbSymbolTable
 70
     0
  0
ENDTAB
  0
TABLE
  2
UCS
  5
7
330
0
100
AcDbSymbolTable
 70
     0
  0
ENDTAB
  0
TABLE
  2
APPID
  5
9
330
0
100
AcDbSymbolTable
 70
     1
  0
APPID
  5
12
330
9
100
AcDbSymbolTableRecord
100
AcDbRegAppTableRecord
  2
ACAD
 70
     0
  0
ENDTAB
  0
TABLE
  2
DIMSTYLE
  5
A
330
0
100
AcDbSymbolTable
 70
     5
100
AcDbDimStyleTable
  0
DIMSTYLE
105
27
330
A
100
AcDbSymbolTableRecord
100
AcDbDimStyleTableRecord
  2
Standard
 70
     0
178
     0
340
11
  0
DIMSTYLE
105
374
102
{ACAD_REACTORS
330
375
102
}
330
A
100
AcDbSymbolTableRecord
100
AcDbDimStyleTableRecord
  2
ME10_DIM_10
 70
     0
 41
3.0
 42
0.5
 44
1.0
 73
     0
 74
     0
 77
     1
 78
     8
140
3.0
147
2.0
172
     1
173
     1
174
     1
175
     1
176
     2
177
     2
271
     2
178
     4
271
     2
340
370
  0
DIMSTYLE
105
37F
102
{ACAD_REACTORS
330
380
102
}
330
A
100
AcDbSymbolTableRecord
100
AcDbDimStyleTableRecord
  2
ME10_DIM_11
 70
     0
 41
3.0
 42
0.5
 44
1.0
 73
     0
 74
     0
 77
     1
 78
     8
140
3.0
147
2.0
172
     1
173
     1
174
     1
175
     1
176
     2
177
     2
271
     2
178
     4
271
     2
340
370
  0
DIMSTYLE
105
38A
102
{ACAD_REACTORS
330
38B
102
}
330
A
100
AcDbSymbolTableRecord
100
AcDbDimStyleTableRecord
  2
ME10_DIM_12
 70
     0
  3
max.
 41
3.0
 42
0.5
 44
1.0
 73
     0
 74
     0
 77
     1
 78
     8
140
3.0
147
2.0
172
     1
173
     1
174
     1
175
     1
176
     2
177
     2
271
     2
178
     4
271
     2
340
370
  0
DIMSTYLE
105
395
102
{ACAD_REACTORS
330
396
102
}
330
A
100
AcDbSymbolTableRecord
100
AcDbDimStyleTableRecord
  2
ME10_DIM_13
 70
     0
 41
3.0
 42
0.5
 44
1.0
 73
     0
 74
     0
 77
     1
 78
     8
140
3.0
147
2.0
172
     1
173
     1
174
     1
175
     1
176
     2
177
     2
271
     2
178
     4
271
     2
340
370
  0
ENDTAB
  0
TABLE
  2
BLOCK_RECORD
  5
1
330
0
100
AcDbSymbolTable
 70
     5
  0
BLOCK_RECORD
  5
1F
330
1
100
AcDbSymbolTableRecord
100
AcDbBlockTableRecord
  2
*Model_Space
340
22
  0
BLOCK_RECORD
  5
1B
330
1
100
AcDbSymbolTableRecord
100
AcDbBlockTableRecord
  2
*Paper_Space
340
1E
  0
BLOCK_RECORD
  5
23
330
1
100
AcDbSymbolTableRecord
100
AcDbBlockTableRecord
  2
*Paper_Space0
340
26
  0
BLOCK_RECORD
  5
36A
330
1
100
AcDbSymbolTableRecord
100
AcDbBlockTableRecord
  2
*D1
340
0
  0
BLOCK_RECORD
  5
376
330
1
100
AcDbSymbolTableRecord
100
AcDbBlockTableRecord
  2
*D2
340
0
  0
BLOCK_RECORD
  5
381
330
1
100
AcDbSymbolTableRecord
100
AcDbBlockTableRecord
  2
*D3
340
0
  0
BLOCK_RECORD
  5
38C
330
1
100
AcDbSymbolTableRecord
100
AcDbBlockTableRecord
  2
*D4
340
0
  0
ENDTAB
  0
ENDSEC
  0
SECTION
  2
BLOCKS
  0
BLOCK
  5
20
330
1F
100
AcDbEntity
  8
0
100
AcDbBlockBegin
  2
*Model_Space
 70
     0
 10
0.0
 20
0.0
 30
0.0
  3
*Model_Space
  1

  0
ENDBLK
  5
21
330
1F
100
AcDbEntity
  8
0
100
AcDbBlockEnd
  0
BLOCK
  5
1C
330
1B
100
AcDbEntity
 67
     1
  8
0
100
AcDbBlockBegin
  2
*Paper_Space
 70
     0
 10
0.0
 20
0.0
 30
0.0
  3
*Paper_Space
  1

  0
ENDBLK
  5
1D
330
1B
100
AcDbEntity
 67
     1
  8
0
100
AcDbBlockEnd
  0
BLOCK
  5
24
330
23
100
AcDbEntity
  8
0
100
AcDbBlockBegin
  2
*Paper_Space0
 70
     0
 10
0.0
 20
0.0
 30
0.0
  3
*Paper_Space0
  1

  0
ENDBLK
  5
25
330
23
100
AcDbEntity
  8
0
100
AcDbBlockEnd
  0
BLOCK
  5
372
330
36A
100
AcDbEntity
  8
0
100
AcDbBlockBegin
  2
*D1
 70
     1
 10
0.0
 20
0.0
 30
0.0
  3
*D1
  1

  0
LINE
  5
36B
330
36A
100
AcDbEntity
  8
1
  6
Continuous
 62
     2
100
AcDbLine
 10
72.86621247571807
 20
-75.9437456144617
 30
0.0
 11
128.8662124757181
 21
-75.9437456144617
 31
0.0
  0
LINE
  5
36C
330
36A
100
AcDbEntity
  8
1
  6
Continuous
 62
     2
100
AcDbLine
 10
128.8662124757181
 20
-49.3
 30
0.0
 11
128.8662124757181
 21
-76.9437456144617
 31
0.0
  0
LINE
  5
36D
330
36A
100
AcDbEntity
  8
1
  6
Continuous
 62
     2
100
AcDbLine
 10
72.86621247571807
 20
-49.3
 30
0.0
 11
72.86621247571807
 21
-76.9437456144617
 31
0.0
  0
SOLID
  5
36E
330
36A
100
AcDbEntity
  8
1
 62
     2
100
AcDbTrace
 10
75.86621247571807
 20
-75.54878812169952
 30
0.0
 11
75.86621247571807
 21
-76.33870310722389
 31
0.0
 12
72.86621247571807
 22
-75.9437456144617
 32
0.0
 13
72.86621247571807
 23
-75.9437456144617
 33
0.0
  0
SOLID
  5
36F
330
36A
100
AcDbEntity
  8
1
 62
     2
100
AcDbTrace
 10
125.8662124757181
 20
-76.33870310722389
 30
0.0
 11
125.8662124757181
 21
-75.54878812169952
 31
0.0
 12
128.8662124757181
 22
-75.9437456144617
 32
0.0
 13
128.8662124757181
 23
-75.9437456144617
 33
0.0
  0
MTEXT
  5
371
330
36A
100
AcDbEntity
  8
1
 62
     4
100
AcDbMText
 10
98.6162124757181
 20
-73.9437456144617
 30
0.0
 40
3.0
 41
0.0
 71
     7
 72
     1
  1
56
  7
CONVERTER_12
 11
0.9999999999970619
 21
2.424068405545306E-6
 31
0.0
 73
     1
 44
0.60024009603842
  0
ENDBLK
  5
373
330
36A
100
AcDbEntity
  8
0
100
AcDbBlockEnd
  0
BLOCK
  5
37D
330
376
100
AcDbEntity
  8
0
100
AcDbBlockBegin
  2
*D2
 70
     1
 10
0.0
 20
0.0
 30
0.0
  3
*D2
  1

  0
LINE
  5
377
330
376
100
AcDbEntity
  8
1
  6
Continuous
 62
     2
100
AcDbLine
 10
79.36621247571807
 20
-65.4076841412671
 30
0.0
 11
122.3662124757181
 21
-65.4076841412671
 31
0.0
  0
LINE
  5
378
330
376
100
AcDbEntity
  8
1
  6
Continuous
 62
     2
100
AcDbLine
 10
122.3662124757181
 20
-53.39999999999999
 30
0.0
 11
122.3662124757181
 21
-66.4076841412671
 31
0.0
  0
LINE
  5
379
330
376
100
AcDbEntity
  8
1
  6
Continuous
 62
     2
100
AcDbLine
 10
79.36621247571807
 20
-53.39999999999999
 30
0.0
 11
79.36621247571807
 21
-66.4076841412671
 31
0.0
  0
SOLID
  5
37A
330
376
100
AcDbEntity
  8
1
 62
     2
100
AcDbTrace
 10
82.36621247571807
 20
-65.01272664850491
 30
0.0
 11
82.36621247571807
 21
-65.80264163402929
 31
0.0
 12
79.36621247571807
 22
-65.4076841412671
 32
0.0
 13
79.36621247571807
 23
-65.4076841412671
 33
0.0
  0
SOLID
  5
37B
330
376
100
AcDbEntity
  8
1
 62
     2
100
AcDbTrace
 10
119.3662124757181
 20
-65.80264163402929
 30
0.0
 11
119.3662124757181
 21
-65.01272664850491
 31
0.0
 12
122.3662124757181
 22
-65.4076841412671
 32
0.0
 13
122.3662124757181
 23
-65.4076841412671
 33
0.0
  0
MTEXT
  5
37C
330
376
100
AcDbEntity
  8
1
 62
     4
100
AcDbMText
 10
98.6162124757181
 20
-63.4076841412671
 30
0.0
 40
3.0
 41
0.0
 71
     7
 72
     1
  1
43
  7
CONVERTER_12
 11
0.9999999999970619
 21
2.424068405545306E-6
 31
0.0
 73
     1
 44
0.60024009603842
  0
ENDBLK
  5
37E
330
376
100
AcDbEntity
  8
0
100
AcDbBlockEnd
  0
BLOCK
  5
388
330
381
100
AcDbEntity
  8
0
100
AcDbBlockBegin
  2
*D3
 70
     1
 10
0.0
 20
0.0
 30
0.0
  3
*D3
  1

  0
LINE
  5
382
330
381
100
AcDbEntity
  8
1
  6
Continuous
 62
     2
100
AcDbLine
 10
147.798633956032
 20
57.1
 30
0.0
 11
147.798633956032
 21
-52.9
 31
0.0
  0
LINE
  5
383
330
381
100
AcDbEntity
  8
1
  6
Continuous
 62
     2
100
AcDbLine
 10
113.3601819369332
 20
57.1
 30
0.0
 11
148.798633956032
 21
57.1
 31
0.0
  0
LINE
  5
384
330
381
100
AcDbEntity
  8
1
  6
Continuous
 62
     2
100
AcDbLine
 10
122.8662124757181
 20
-52.9
 30
0.0
 11
148.798633956032
 21
-52.9
 31
0.0
  0
SOLID
  5
385
330
381
100
AcDbEntity
  8
1
 62
     2
100
AcDbTrace
 10
148.1935914487942
 20
54.1
 30
0.0
 11
147.4036764632698
 21
54.1
 31
0.0
 12
147.798633956032
 22
57.1
 32
0.0
 13
147.798633956032
 23
57.1
 33
0.0
  0
SOLID
  5
386
330
381
100
AcDbEntity
  8
1
 62
     2
100
AcDbTrace
 10
147.4036764632698
 20
-49.9
 30
0.0
 11
148.1935914487942
 21
-49.9
 31
0.0
 12
147.798633956032
 22
-52.9
 32
0.0
 13
147.798633956032
 23
-52.9
 33
0.0
  0
MTEXT
  5
387
330
381
100
AcDbEntity
  8
1
 62
     4
100
AcDbMText
 10
145.798633956032
 20
-5.7375
 30
0.0
 40
3.0
 41
0.0
 71
     7
 72
     1
  1
\C4;110\C4;max.
  7
CONVERTER_12
 11
0.0
 21
1.0
 31
0.0
 73
     1
 44
0.60024009603842
  0
ENDBLK
  5
389
330
381
100
AcDbEntity
  8
0
100
AcDbBlockEnd
  0
BLOCK
  5
393
330
38C
100
AcDbEntity
  8
0
100
AcDbBlockBegin
  2
*D4
 70
     1
 10
0.0
 20
0.0
 30
0.0
  3
*D4
  1

  0
LINE
  5
38D
330
38C
100
AcDbEntity
  8
1
  6
Continuous
 62
     2
100
AcDbLine
 10
-79.86704628641965
 20
-65.4076841412671
 30
0.0
 11
40.13295371358035
 21
-65.4076841412671
 31
0.0
  0
LINE
  5
38E
330
38C
100
AcDbEntity
  8
1
  6
Continuous
 62
     2
100
AcDbLine
 10
40.13295371358035
 20
-53.39999999999999
 30
0.0
 11
40.13295371358035
 21
-66.4076841412671
 31
0.0
  0
LINE
  5
38F
330
38C
100
AcDbEntity
  8
1
  6
Continuous
 62
     2
100
AcDbLine
 10
-79.86704628641965
 20
-53.39999999999999
 30
0.0
 11
-79.86704628641965
 21
-66.4076841412671
 31
0.0
  0
SOLID
  5
390
330
38C
100
AcDbEntity
  8
1
 62
     2
100
AcDbTrace
 10
-76.86704628641965
 20
-65.01272664850491
 30
0.0
 11
-76.86704628641965
 21
-65.80264163402929
 31
0.0
 12
-79.86704628641965
 22
-65.4076841412671
 32
0.0
 13
-79.86704628641965
 23
-65.4076841412671
 33
0.0
  0
SOLID
  5
391
330
38C
100
AcDbEntity
  8
1
 62
     2
100
AcDbTrace
 10
37.13295371358035
 20
-65.80264163402929
 30
0.0
 11
37.13295371358035
 21
-65.01272664850491
 31
0.0
 12
40.13295371358035
 22
-65.4076841412671
 32
0.0
 13
40.13295371358035
 23
-65.4076841412671
 33
0.0
  0
MTEXT
  5
392
330
38C
100
AcDbEntity
  8
1
 62
     4
100
AcDbMText
 10
-23.01704628641965
 20
-63.4076841412671
 30
0.0
 40
3.0
 41
0.0
 71
     7
 72
     1
  1
120
  7
CONVERTER_12
 11
0.9999999999970619
 21
2.424068405545306E-6
 31
0.0
 73
     1
 44
0.60024009603842
  0
ENDBLK
  5
394
330
38C
100
AcDbEntity
  8
0
100
AcDbBlockEnd
  0
ENDSEC
  0
SECTION
  2
ENTITIES
  0
LINE
  5
47
330
1F
100
AcDbEntity
  8
0
  6
Continuous
 62
     7
100
AcDbLine
 10
117.8630527754938
 20
28.4
 30
0.0
 11
118.3630527754938
 21
28.8
 31
0.0
  0
LINE
  5
48
330
1F
100
AcDbEntity
  8
0
  6
Continuous
 62
     7
100
AcDbLine
 10
87.86305277549378
 20
27.6
 30
0.0
 11
88.36305277549378
 21
27.2
 31
0.0
  0
LINE
  5
49
330
1F
100
AcDbEntity
  8
0
  6
Continuous
 62
     7
100
AcDbLine
 10
113.8630527754938
 20
27.6
 30
0.0
 11
113.3630527754938
 21
27.2
 31
0.0
  0
LINE
  5
4A
330
1F
100
AcDbEntity
  8
0
  6
Continuous
 62
     7
100
AcDbLine
 10
115.3662124757181
 20
27.1
 30
0.0
 11
86.36621247571807
 21
27.1
 31
0.0
  0
LINE
  5
4B
330
1F
100
AcDbEntity
  8
0
  6
Continuous
 62
     7
100
AcDbLine
 10
86.36621247571807
 20
25.1
 30
0.0
 11
115.3662124757181
 21
25.1
 31
0.0
  0
LINE
  5
4C
330
1F
100
AcDbEntity
  8
0
  6
Continuous
 62
     7
100
AcDbLine
 10
113.4880527754938
 20
27.1
 30
0.0
 11
113.3630527754938
 21
27.2
 31
0.0
  0
LINE
  5
4D
330
1F
100
AcDbEntity
  8
0
  6
Continuous
 62
     7
100
AcDbLine
 10
87.86305277549378
 20
28.4
 30
0.0
 11
88.36305277549378
 21
28.8
 31
0.0
  0
LINE
  5
4E
330
1F
100
AcDbEntity
  8
0
  6
Continuous
 62
     7
100
AcDbLine
 10
87.86305277549378
 20
29.2
 30
0.0
 11
88.36305277549378
 21
28.8
 31
0.0
  0
LINE
  5
4F
330
1F
100
AcDbEntity
  8
0
  6
Continuous
 62
     7
100
AcDbLine
 10
88.23805277549378
 20
27.1
 30
0.0
 11
88.36305277549378
 21
27.2
 31
0.0
  0
LINE
  5
50
330
1F
100
AcDbEntity
  8
0
  6
Continuous
 62
     7
100
AcDbLine
 10
87.86305277549378
 20
28.4
 30
0.0
 11
88.36305277549378
 21
28.0
 31
0.0
  0
LINE
  5
51
330
1F
100
AcDbEntity
  8
0
  6
Continuous
 62
     7
100
AcDbLine
 10
87.86305277549378
 20
27.6
 30
0.0
 11
88.36305277549378
 21
28.0
 31
0.0
  0
LINE
  5
52
330
1F
100
AcDbEntity
  8
0
  6
Continuous
 62
     7
100
AcDbLine
 10
113.8630527754938
 20
28.4
 30
0.0
 11
113.3630527754938
 21
28.8
 31
0.0
  0
LINE
  5
53
330
1F
100
AcDbEntity
  8
0
  6
Continuous
 62
     7
100
AcDbLine
 10
113.8630527754938
 20
28.4
 30
0.0
 11
113.3630527754938
 21
28.0
 31
0.0
  0
LINE
  5
54
330
1F
100
AcDbEntity
  8
0
  6
Continuous
 62
     7
100
AcDbLine
 10
113.8630527754938
 20
27.6
 30
0.0
 11
113.3630527754938
 21
28.0
 31
0.0
  0
LINE
  5
55
330
1F
100
AcDbEntity
  8
0
  6
Continuous
 62
     7
100
AcDbLine
 10
113.8630527754938
 20
29.2
 30
0.0
 11
113.3630527754938
 21
28.8
 31
0.0
  0
LINE
  5
56
330
1F
100
AcDbEntity
  8
0
  6
Continuous
 62
     7
100
AcDbLine
 10
113.8630527754938
 20
29.2
 30
0.0
 11
117.8630527754938
 21
29.2
 31
0.0
  0
LINE
  5
57
330
1F
100
AcDbEntity
  8
0
  6
Continuous
 62
     7
100
AcDbLine
 10
113.8630527754938
 20
27.6
 30
0.0
 11
117.8630527754938
 21
27.6
 31
0.0
  0
LINE
  5
58
330
1F
100
AcDbEntity
  8
0
  6
Continuous
 62
     7
100
AcDbLine
 10
113.8630527754938
 20
28.4
 30
0.0
 11
117.8630527754938
 21
28.4
 31
0.0
  0
LINE
  5
59
330
1F
100
AcDbEntity
  8
0
  6
Continuous
 62
     7
100
AcDbLine
 10
117.8630527754938
 20
27.6
 30
0.0
 11
118.3630527754938
 21
27.2
 31
0.0
  0
LINE
  5
5A
330
1F
100
AcDbEntity
  8
0
  6
Continuous
 62
     7
100
AcDbLine
 10
117.8630527754938
 20
27.6
 30
0.0
 11
118.3630527754938
 21
28.0
 31
0.0
  0
LINE
  5
5B
330
1F
100
AcDbEntity
  8
0
  6
Continuous
 62
     7
100
AcDbLine
 10
118.2380527754938
 20
27.1
 30
0.0
 11
118.3630527754938
 21
27.2
 31
0.0
  0
LINE
  5
5C
330
1F
100
AcDbEntity
  8
0
  6
Continuous
 62
     7
100
AcDbLine
 10
113.3630527754938
 20
28.0
 30
0.0
 11
118.3630527754938
 21
28.0
 31
0.0
  0
LINE
  5
5D
330
1F
100
AcDbEntity
  8
0
  6
Continuous
 62
     7
100
AcDbLine
 10
113.3630527754938
 20
27.2
 30
0.0
 11
118.3630527754938
 21
27.2
 31
0.0
  0
LINE
  5
5E
330
1F
100
AcDbEntity
  8
0
  6
Continuous
 62
     7
100
AcDbLine
 10
87.86305277549378
 20
29.2
 30
0.0
 11
88.36305277549378
 21
29.6
 31
0.0
  0
LINE
  5
5F
330
1F
100
AcDbEntity
  8
0
  6
Continuous
 62
     7
100
AcDbLine
 10
117.8630527754938
 20
29.2
 30
0.0
 11
118.3630527754938
 21
28.8
 31
0.0
  0
LINE
  5
60
330
1F
100
AcDbEntity
  8
0
  6
Continuous
 62
     7
100
AcDbLine
 10
113.3630527754938
 20
29.6
 30
0.0
 11
118.3630527754938
 21
29.6
 31
0.0
  0
LINE
  5
61
330
1F
100
AcDbEntity
  8
0
  6
Continuous
 62
     7
100
AcDbLine
 10
113.8630527754938
 20
29.2
 30
0.0
 11
113.3630527754938
 21
29.6
 31
0.0
  0
LINE
  5
62
330
1F
100
AcDbEntity
  8
0
  6
Continuous
 62
     7
100
AcDbLine
 10
117.8630527754938
 20
29.2
 30
0.0
 11
118.3630527754938
 21
29.6
 31
0.0
  0
LINE
  5
63
330
1F
100
AcDbEntity
  8
0
  6
Continuous
 62
     7
100
AcDbLine
 10
113.3630527754938
 20
28.8
 30
0.0
 11
118.3630527754938
 21
28.8
 31
0.0
  0
LINE
  5
64
330
1F
100
AcDbEntity
  8
0
  6
Continuous
 62
     7
100
AcDbLine
 10
117.8630527754938
 20
28.4
 30
0.0
 11
118.3630527754938
 21
28.0
 31
0.0
  0
LINE
  5
65
330
1F
100
AcDbEntity
  8
0
  6
Continuous
 62
     7
100
AcDbLine
 10
88.85912019564938
 20
30.1
 30
0.0
 11
112.8669853553381
 21
30.1
 31
0.0
  0
LINE
  5
66
330
1F
100
AcDbEntity
  8
0
  6
Continuous
 62
     7
100
AcDbLine
 10
117.8630527754938
 20
30.0
 30
0.0
 11
117.9880527754938
 21
30.1
 31
0.0
  0
LINE
  5
67
330
1F
100
AcDbEntity
  8
0
  6
Continuous
 62
     7
100
AcDbLine
 10
113.8630527754938
 20
30.0
 30
0.0
 11
113.7380527754938
 21
30.1
 31
0.0
  0
LINE
  5
68
330
1F
100
AcDbEntity
  8
0
  6
Continuous
 62
     7
100
AcDbLine
 10
117.8630527754938
 20
30.0
 30
0.0
 11
118.3630527754938
 21
29.6
 31
0.0
  0
LINE
  5
69
330
1F
100
AcDbEntity
  8
0
  6
Continuous
 62
     7
100
AcDbLine
 10
113.8630527754938
 20
30.0
 30
0.0
 11
117.8630527754938
 21
30.0
 31
0.0
  0
LINE
  5
6A
330
1F
100
AcDbEntity
  8
0
  6
Continuous
 62
     7
100
AcDbLine
 10
113.8630527754938
 20
30.0
 30
0.0
 11
113.3630527754938
 21
29.6
 31
0.0
  0
LINE
  5
6B
330
1F
100
AcDbEntity
  8
0
  6
Continuous
 62
     7
100
AcDbLine
 10
87.86305277549378
 20
30.0
 30
0.0
 11
88.36305277549378
 21
29.6
 31
0.0
  0
LINE
  5
6C
330
1F
100
AcDbEntity
  8
0
  6
Continuous
 62
     7
100
AcDbLine
 10
87.86305277549378
 20
30.0
 30
0.0
 11
87.98805277549377
 21
30.1
 31
0.0
  0
LINE
  5
6D
330
1F
100
AcDbEntity
  8
0
  6
Continuous
 62
     7
100
AcDbLine
 10
115.3662124757181
 20
25.1
 30
0.0
 11
115.3662124757181
 21
27.1
 31
0.0
  0
LINE
  5
6E
330
1F
100
AcDbEntity
  8
0
  6
Continuous
 62
     7
100
AcDbLine
 10
120.3261685416299
 20
27.1
 30
0.0
 11
115.3662124757181
 21
27.1
 31
0.0
  0
LINE
  5
6F
330
1F
100
AcDbEntity
  8
0
  6
Continuous
 62
     7
100
AcDbLine
 10
112.8669853553381
 20
30.1
 30
0.0
 11
119.8669853553381
 21
30.1
 31
0.0
  0
LINE
  5
70
330
1F
100
AcDbEntity
  8
0
  6
Continuous
 62
     7
100
AcDbLine
 10
119.8669853553381
 20
35.1
 30
0.0
 11
120.1130527754938
 21
35.1
 31
0.0
  0
LINE
  5
71
330
1F
100
AcDbEntity
  8
0
  6
Continuous
 62
     7
100
AcDbLine
 10
119.8669853553381
 20
30.1
 30
0.0
 11
119.8669853553381
 21
35.1
 31
0.0
  0
LINE
  5
72
330
1F
100
AcDbEntity
  8
0
  6
Continuous
 62
     7
100
AcDbLine
 10
119.8669853553381
 20
40.1
 30
0.0
 11
120.1130527754938
 21
40.1
 31
0.0
  0
LINE
  5
73
330
1F
100
AcDbEntity
  8
0
  6
Continuous
 62
     7
100
AcDbLine
 10
112.8669853553381
 20
40.1
 30
0.0
 11
119.8669853553381
 21
40.1
 31
0.0
  0
LINE
  5
74
330
1F
100
AcDbEntity
  8
0
  6
Continuous
 62
     7
100
AcDbLine
 10
120.1130527754938
 20
35.1
 30
0.0
 11
120.1130527754938
 21
40.1
 31
0.0
  0
LINE
  5
75
330
1F
100
AcDbEntity
  8
0
  6
Continuous
 62
     7
100
AcDbLine
 10
112.8669853553381
 20
30.1
 30
0.0
 11
112.8669853553381
 21
40.1
 31
0.0
  0
LINE
  5
76
330
1F
100
AcDbEntity
  8
0
  6
Continuous
 62
     7
100
AcDbLine
 10
119.8669853553381
 20
40.1
 30
0.0
 11
119.8669853553381
 21
35.1
 31
0.0
  0
LINE
  5
77
330
1F
100
AcDbEntity
  8
0
  6
Continuous
 62
     7
100
AcDbLine
 10
104.8669853089412
 20
40.1
 30
0.0
 11
112.8669853553381
 21
40.1
 31
0.0
  0
LINE
  5
78
330
1F
100
AcDbEntity
  8
0
  6
Continuous
 62
     7
100
AcDbLine
 10
104.8669853089412
 20
54.320105116796
 30
0.0
 11
104.8601819369332
 21
54.320105116796
 31
0.0
  0
LINE
  5
79
330
1F
100
AcDbEntity
  8
0
  6
Continuous
 62
     7
100
AcDbLine
 10
110.8601819369332
 20
55.35
 30
0.0
 11
115.8601819369332
 21
55.35
 31
0.0
  0
LINE
  5
7A
330
1F
100
AcDbEntity
  8
0
  6
Continuous
 62
     7
100
AcDbLine
 10
104.8601819369332
 20
54.6
 30
0.0
 11
110.8601819369332
 21
54.6
 31
0.0
  0
LINE
  5
7B
330
1F
100
AcDbEntity
  8
0
  6
Continuous
 62
     7
100
AcDbLine
 10
104.8601819369332
 20
54.6
 30
0.0
 11
104.8601819369332
 21
54.320105116796
 31
0.0
  0
LINE
  5
7C
330
1F
100
AcDbEntity
  8
0
  6
Continuous
 62
     7
100
AcDbLine
 10
110.8601819369332
 20
57.1
 30
0.0
 11
110.8601819369332
 21
54.6
 31
0.0
  0
LINE
  5
7D
330
1F
100
AcDbEntity
  8
0
  6
Continuous
 62
     7
100
AcDbLine
 10
110.8601819369332
 20
54.6
 30
0.0
 11
110.8601819369332
 21
47.6
 31
0.0
  0
LINE
  5
7E
330
1F
100
AcDbEntity
  8
0
  6
Continuous
 62
     7
100
AcDbLine
 10
110.8601819369332
 20
47.6
 30
0.0
 11
110.8601819369332
 21
45.1
 31
0.0
  0
LINE
  5
7F
330
1F
100
AcDbEntity
  8
0
  6
Continuous
 62
     7
100
AcDbLine
 10
104.8669853089412
 20
54.320105116796
 30
0.0
 11
104.8669853089412
 21
40.1
 31
0.0
  0
LINE
  5
80
330
1F
100
AcDbEntity
  8
0
  6
Continuous
 62
     7
100
AcDbLine
 10
112.8601819369332
 20
57.1
 30
0.0
 11
110.8601819369332
 21
57.1
 31
0.0
  0
LINE
  5
81
330
1F
100
AcDbEntity
  8
0
  6
Continuous
 62
     7
100
AcDbLine
 10
104.8601819369332
 20
57.1
 30
0.0
 11
110.8601819369332
 21
57.1
 31
0.0
  0
LINE
  5
82
330
1F
100
AcDbEntity
  8
0
  6
Continuous
 62
     7
100
AcDbLine
 10
115.8601819369332
 20
55.35
 30
0.0
 11
115.8601819369332
 21
46.85
 31
0.0
  0
LINE
  5
83
330
1F
100
AcDbEntity
  8
0
  6
Continuous
 62
     7
100
AcDbLine
 10
113.8601819369332
 20
56.1
 30
0.0
 11
113.8601819369332
 21
55.35
 31
0.0
  0
LINE
  5
84
330
1F
100
AcDbEntity
  8
0
  6
Continuous
 62
     7
100
AcDbLine
 10
110.8601819369332
 20
46.85
 30
0.0
 11
115.8601819369332
 21
46.85
 31
0.0
  0
LINE
  5
85
330
1F
100
AcDbEntity
  8
0
  6
Continuous
 62
     7
100
AcDbLine
 10
113.8601819369332
 20
46.85
 30
0.0
 11
113.8601819369332
 21
46.1
 31
0.0
  0
LINE
  5
86
330
1F
100
AcDbEntity
  8
0
  6
Continuous
 62
     7
100
AcDbLine
 10
104.8669853089412
 20
45.1
 30
0.0
 11
110.8601819369332
 21
45.1
 31
0.0
  0
LINE
  5
87
330
1F
100
AcDbEntity
  8
0
  6
Continuous
 62
     7
100
AcDbLine
 10
104.8669853089412
 20
47.6
 30
0.0
 11
110.8601819369332
 21
47.6
 31
0.0
  0
LINE
  5
88
330
1F
100
AcDbEntity
  8
0
  6
Continuous
 62
     7
100
AcDbLine
 10
112.8601819369332
 20
45.1
 30
0.0
 11
110.8601819369332
 21
45.1
 31
0.0
  0
LINE
  5
89
330
1F
100
AcDbEntity
  8
0
  6
Continuous
 62
     7
100
AcDbLine
 10
83.86305277549378
 20
27.6
 30
0.0
 11
83.36305277549378
 21
27.2
 31
0.0
  0
LINE
  5
8A
330
1F
100
AcDbEntity
  8
0
  6
Continuous
 62
     7
100
AcDbLine
 10
83.86305277549378
 20
28.4
 30
0.0
 11
83.36305277549378
 21
28.8
 31
0.0
  0
LINE
  5
8B
330
1F
100
AcDbEntity
  8
0
  6
Continuous
 62
     7
100
AcDbLine
 10
83.86305277549378
 20
30.0
 30
0.0
 11
83.36305277549378
 21
29.6
 31
0.0
  0
LINE
  5
8C
330
1F
100
AcDbEntity
  8
0
  6
Continuous
 62
     7
100
AcDbLine
 10
83.86305277549378
 20
29.2
 30
0.0
 11
83.36305277549378
 21
29.6
 31
0.0
  0
LINE
  5
8D
330
1F
100
AcDbEntity
  8
0
  6
Continuous
 62
     7
100
AcDbLine
 10
83.86305277549378
 20
29.2
 30
0.0
 11
83.36305277549378
 21
28.8
 31
0.0
  0
LINE
  5
8E
330
1F
100
AcDbEntity
  8
0
  6
Continuous
 62
     7
100
AcDbLine
 10
83.86305277549378
 20
28.4
 30
0.0
 11
83.36305277549378
 21
28.0
 31
0.0
  0
LINE
  5
8F
330
1F
100
AcDbEntity
  8
0
  6
Continuous
 62
     7
100
AcDbLine
 10
83.86305277549378
 20
27.6
 30
0.0
 11
83.36305277549378
 21
28.0
 31
0.0
  0
LINE
  5
90
330
1F
100
AcDbEntity
  8
0
  6
Continuous
 62
     7
100
AcDbLine
 10
86.36621247571807
 20
27.1
 30
0.0
 11
81.40625640980619
 21
27.1
 31
0.0
  0
LINE
  5
91
330
1F
100
AcDbEntity
  8
0
  6
Continuous
 62
     7
100
AcDbLine
 10
83.86305277549378
 20
28.4
 30
0.0
 11
87.86305277549378
 21
28.4
 31
0.0
  0
LINE
  5
92
330
1F
100
AcDbEntity
  8
0
  6
Continuous
 62
     7
100
AcDbLine
 10
83.86305277549378
 20
27.6
 30
0.0
 11
87.86305277549378
 21
27.6
 31
0.0
  0
LINE
  5
93
330
1F
100
AcDbEntity
  8
0
  6
Continuous
 62
     7
100
AcDbLine
 10
83.48805277549378
 20
27.1
 30
0.0
 11
83.36305277549378
 21
27.2
 31
0.0
  0
LINE
  5
94
330
1F
100
AcDbEntity
  8
0
  6
Continuous
 62
     7
100
AcDbLine
 10
83.36305277549378
 20
28.8
 30
0.0
 11
88.36305277549378
 21
28.8
 31
0.0
  0
LINE
  5
95
330
1F
100
AcDbEntity
  8
0
  6
Continuous
 62
     7
100
AcDbLine
 10
83.36305277549378
 20
28.0
 30
0.0
 11
88.36305277549378
 21
28.0
 31
0.0
  0
LINE
  5
96
330
1F
100
AcDbEntity
  8
0
  6
Continuous
 62
     7
100
AcDbLine
 10
83.36305277549378
 20
27.2
 30
0.0
 11
88.36305277549378
 21
27.2
 31
0.0
  0
LINE
  5
97
330
1F
100
AcDbEntity
  8
0
  6
Continuous
 62
     7
100
AcDbLine
 10
83.86305277549378
 20
29.2
 30
0.0
 11
87.86305277549378
 21
29.2
 31
0.0
  0
LINE
  5
98
330
1F
100
AcDbEntity
  8
0
  6
Continuous
 62
     7
100
AcDbLine
 10
83.36305277549378
 20
29.6
 30
0.0
 11
88.36305277549378
 21
29.6
 31
0.0
  0
LINE
  5
99
330
1F
100
AcDbEntity
  8
0
  6
Continuous
 62
     7
100
AcDbLine
 10
83.86305277549378
 20
30.0
 30
0.0
 11
87.86305277549378
 21
30.0
 31
0.0
  0
LINE
  5
9A
330
1F
100
AcDbEntity
  8
0
  6
Continuous
 62
     7
100
AcDbLine
 10
83.86305277549378
 20
30.0
 30
0.0
 11
83.73805277549378
 21
30.1
 31
0.0
  0
LINE
  5
9B
330
1F
100
AcDbEntity
  8
0
  6
Continuous
 62
     7
100
AcDbLine
 10
81.61305277549378
 20
35.1
 30
0.0
 11
81.85912019564948
 21
35.1
 31
0.0
  0
LINE
  5
9C
330
1F
100
AcDbEntity
  8
0
  6
Continuous
 62
     7
100
AcDbLine
 10
81.85912019564938
 20
30.1
 30
0.0
 11
81.85912019564948
 21
35.1
 31
0.0
  0
LINE
  5
9D
330
1F
100
AcDbEntity
  8
0
  6
Continuous
 62
     7
100
AcDbLine
 10
81.61305277549378
 20
40.1
 30
0.0
 11
81.85912019564938
 21
40.1
 31
0.0
  0
LINE
  5
9E
330
1F
100
AcDbEntity
  8
0
  6
Continuous
 62
     7
100
AcDbLine
 10
81.61305277549378
 20
35.1
 30
0.0
 11
81.61305277549378
 21
40.1
 31
0.0
  0
LINE
  5
9F
330
1F
100
AcDbEntity
  8
0
  6
Continuous
 62
     7
100
AcDbLine
 10
81.85912019564948
 20
35.1
 30
0.0
 11
81.85912019564938
 21
40.1
 31
0.0
  0
LINE
  5
A0
330
1F
100
AcDbEntity
  8
0
  6
Continuous
 62
     7
100
AcDbLine
 10
81.85912019564938
 20
40.1
 30
0.0
 11
88.85912019564938
 21
40.1
 31
0.0
  0
LINE
  5
A1
330
1F
100
AcDbEntity
  8
0
  6
Continuous
 62
     7
100
AcDbLine
 10
81.85912019564938
 20
30.1
 30
0.0
 11
88.85912019564938
 21
30.1
 31
0.0
  0
LINE
  5
A2
330
1F
100
AcDbEntity
  8
0
  6
Continuous
 62
     7
100
AcDbLine
 10
88.85912019564938
 20
30.1
 30
0.0
 11
88.85912019564938
 21
40.1
 31
0.0
  0
LINE
  5
A3
330
1F
100
AcDbEntity
  8
0
  6
Continuous
 62
     7
100
AcDbLine
 10
96.85912014925252
 20
40.1
 30
0.0
 11
96.86592361405442
 21
40.1
 31
0.0
  0
LINE
  5
A4
330
1F
100
AcDbEntity
  8
0
  6
Continuous
 62
     7
100
AcDbLine
 10
88.85912019564938
 20
40.1
 30
0.0
 11
96.85912014925252
 21
40.1
 31
0.0
  0
LINE
  5
A5
330
1F
100
AcDbEntity
  8
0
  6
Continuous
 62
     7
100
AcDbLine
 10
104.8669853089412
 20
40.1
 30
0.0
 11
96.86592361405442
 21
40.1
 31
0.0
  0
LINE
  5
A6
330
1F
100
AcDbEntity
  8
0
  6
Continuous
 62
     7
100
AcDbLine
 10
96.85912014925252
 20
40.1
 30
0.0
 11
96.85912014925252
 21
45.1
 31
0.0
  0
LINE
  5
A7
330
1F
100
AcDbEntity
  8
0
  6
Continuous
 62
     7
100
AcDbLine
 10
96.86592361405442
 20
45.1
 30
0.0
 11
89.86592361405442
 21
45.1
 31
0.0
  0
LINE
  5
A8
330
1F
100
AcDbEntity
  8
0
  6
Continuous
 62
     7
100
AcDbLine
 10
96.86592361405442
 20
47.6
 30
0.0
 11
96.86592361405442
 21
54.6
 31
0.0
  0
LINE
  5
A9
330
1F
100
AcDbEntity
  8
0
  6
Continuous
 62
     7
100
AcDbLine
 10
89.36018193693322
 20
53.6
 30
0.0
 11
89.36018193693322
 21
48.6
 31
0.0
  0
LINE
  5
AA
330
1F
100
AcDbEntity
  8
0
  6
Continuous
 62
     7
100
AcDbLine
 10
84.16018193693318
 20
49.1
 30
0.0
 11
84.56018193693318
 21
48.6
 31
0.0
  0
LINE
  5
AB
330
1F
100
AcDbEntity
  8
0
  6
Continuous
 62
     7
100
AcDbLine
 10
88.16018193693318
 20
49.1
 30
0.0
 11
88.56018193693318
 21
48.6
 31
0.0
  0
LINE
  5
AC
330
1F
100
AcDbEntity
  8
0
  6
Continuous
 62
     7
100
AcDbLine
 10
84.96018193693318
 20
49.1
 30
0.0
 11
85.36018193693317
 21
48.6
 31
0.0
  0
LINE
  5
AD
330
1F
100
AcDbEntity
  8
0
  6
Continuous
 62
     7
100
AcDbLine
 10
85.76018193693318
 20
49.1
 30
0.0
 11
86.16018193693318
 21
48.6
 31
0.0
  0
LINE
  5
AE
330
1F
100
AcDbEntity
  8
0
  6
Continuous
 62
     7
100
AcDbLine
 10
87.36018193693317
 20
49.1
 30
0.0
 11
87.76018193693318
 21
48.6
 31
0.0
  0
LINE
  5
AF
330
1F
100
AcDbEntity
  8
0
  6
Continuous
 62
     7
100
AcDbLine
 10
88.96018193693322
 20
49.1
 30
0.0
 11
89.36018193693322
 21
48.6
 31
0.0
  0
LINE
  5
B0
330
1F
100
AcDbEntity
  8
0
  6
Continuous
 62
     7
100
AcDbLine
 10
87.36018193693317
 20
49.1
 30
0.0
 11
86.96018193693318
 21
48.6
 31
0.0
  0
LINE
  5
B1
330
1F
100
AcDbEntity
  8
0
  6
Continuous
 62
     7
100
AcDbLine
 10
88.96018193693322
 20
49.1
 30
0.0
 11
88.56018193693318
 21
48.6
 31
0.0
  0
LINE
  5
B2
330
1F
100
AcDbEntity
  8
0
  6
Continuous
 62
     7
100
AcDbLine
 10
88.16018193693318
 20
49.1
 30
0.0
 11
87.76018193693318
 21
48.6
 31
0.0
  0
LINE
  5
B3
330
1F
100
AcDbEntity
  8
0
  6
Continuous
 62
     7
100
AcDbLine
 10
89.76018193693322
 20
49.1
 30
0.0
 11
89.36018193693322
 21
48.6
 31
0.0
  0
LINE
  5
B4
330
1F
100
AcDbEntity
  8
0
  6
Continuous
 62
     7
100
AcDbLine
 10
89.76018193693322
 20
49.1
 30
0.0
 11
89.86592361405442
 21
48.9678229035985
 31
0.0
  0
LINE
  5
B5
330
1F
100
AcDbEntity
  8
0
  6
Continuous
 62
     7
100
AcDbLine
 10
96.86592361405442
 20
47.6
 30
0.0
 11
89.86592361405442
 21
47.6
 31
0.0
  0
LINE
  5
B6
330
1F
100
AcDbEntity
  8
0
  6
Continuous
 62
     7
100
AcDbLine
 10
89.86592361405442
 20
47.6
 30
0.0
 11
89.86592361405442
 21
48.9678229035985
 31
0.0
  0
LINE
  5
B7
330
1F
100
AcDbEntity
  8
0
  6
Continuous
 62
     7
100
AcDbLine
 10
89.86592361405442
 20
48.9678229035985
 30
0.0
 11
89.86592361405442
 21
53.2321770964015
 31
0.0
  0
LINE
  5
B8
330
1F
100
AcDbEntity
  8
0
  6
Continuous
 62
     7
100
AcDbLine
 10
89.76018193693322
 20
53.1
 30
0.0
 11
89.76018193693322
 21
49.1
 31
0.0
  0
LINE
  5
B9
330
1F
100
AcDbEntity
  8
0
  6
Continuous
 62
     7
100
AcDbLine
 10
86.56018193693318
 20
53.1
 30
0.0
 11
86.56018193693318
 21
49.1
 31
0.0
  0
LINE
  5
BA
330
1F
100
AcDbEntity
  8
0
  6
Continuous
 62
     7
100
AcDbLine
 10
88.16018193693318
 20
53.1
 30
0.0
 11
88.16018193693318
 21
49.1
 31
0.0
  0
LINE
  5
BB
330
1F
100
AcDbEntity
  8
0
  6
Continuous
 62
     7
100
AcDbLine
 10
87.36018193693317
 20
53.1
 30
0.0
 11
87.36018193693317
 21
49.1
 31
0.0
  0
LINE
  5
BC
330
1F
100
AcDbEntity
  8
0
  6
Continuous
 62
     7
100
AcDbLine
 10
88.96018193693322
 20
53.1
 30
0.0
 11
88.96018193693322
 21
49.1
 31
0.0
  0
LINE
  5
BD
330
1F
100
AcDbEntity
  8
0
  6
Continuous
 62
     7
100
AcDbLine
 10
86.56018193693318
 20
49.1
 30
0.0
 11
86.16018193693318
 21
48.6
 31
0.0
  0
LINE
  5
BE
330
1F
100
AcDbEntity
  8
0
  6
Continuous
 62
     7
100
AcDbLine
 10
86.56018193693318
 20
49.1
 30
0.0
 11
86.96018193693318
 21
48.6
 31
0.0
  0
LINE
  5
BF
330
1F
100
AcDbEntity
  8
0
  6
Continuous
 62
     7
100
AcDbLine
 10
85.76018193693318
 20
53.1
 30
0.0
 11
85.76018193693318
 21
49.1
 31
0.0
  0
LINE
  5
C0
330
1F
100
AcDbEntity
  8
0
  6
Continuous
 62
     7
100
AcDbLine
 10
84.96018193693318
 20
53.1
 30
0.0
 11
84.96018193693318
 21
49.1
 31
0.0
  0
LINE
  5
C1
330
1F
100
AcDbEntity
  8
0
  6
Continuous
 62
     7
100
AcDbLine
 10
85.76018193693318
 20
49.1
 30
0.0
 11
85.36018193693317
 21
48.6
 31
0.0
  0
LINE
  5
C2
330
1F
100
AcDbEntity
  8
0
  6
Continuous
 62
     7
100
AcDbLine
 10
84.16018193693318
 20
53.1
 30
0.0
 11
84.16018193693318
 21
49.1
 31
0.0
  0
LINE
  5
C3
330
1F
100
AcDbEntity
  8
0
  6
Continuous
 62
     7
100
AcDbLine
 10
84.96018193693318
 20
49.1
 30
0.0
 11
84.56018193693318
 21
48.6
 31
0.0
  0
LINE
  5
C4
330
1F
100
AcDbEntity
  8
0
  6
Continuous
 62
     7
100
AcDbLine
 10
83.36018193693317
 20
49.1
 30
0.0
 11
82.96018193693318
 21
48.6
 31
0.0
  0
LINE
  5
C5
330
1F
100
AcDbEntity
  8
0
  6
Continuous
 62
     7
100
AcDbLine
 10
84.16018193693318
 20
49.1
 30
0.0
 11
83.76018193693318
 21
48.6
 31
0.0
  0
LINE
  5
C6
330
1F
100
AcDbEntity
  8
0
  6
Continuous
 62
     7
100
AcDbLine
 10
83.36018193693317
 20
49.1
 30
0.0
 11
83.76018193693318
 21
48.6
 31
0.0
  0
LINE
  5
C7
330
1F
100
AcDbEntity
  8
0
  6
Continuous
 62
     7
100
AcDbLine
 10
83.36018193693317
 20
53.1
 30
0.0
 11
83.36018193693317
 21
49.1
 31
0.0
  0
LINE
  5
C8
330
1F
100
AcDbEntity
  8
0
  6
Continuous
 62
     7
100
AcDbLine
 10
82.56018193693318
 20
53.1
 30
0.0
 11
82.56018193693318
 21
49.1
 31
0.0
  0
LINE
  5
C9
330
1F
100
AcDbEntity
  8
0
  6
Continuous
 62
     7
100
AcDbLine
 10
82.56018193693318
 20
49.1
 30
0.0
 11
82.16018193693318
 21
48.6
 31
0.0
  0
LINE
  5
CA
330
1F
100
AcDbEntity
  8
0
  6
Continuous
 62
     7
100
AcDbLine
 10
82.56018193693318
 20
49.1
 30
0.0
 11
82.96018193693318
 21
48.6
 31
0.0
  0
LINE
  5
CB
330
1F
100
AcDbEntity
  8
0
  6
Continuous
 62
     7
100
AcDbLine
 10
81.76018193693318
 20
53.1
 30
0.0
 11
81.76018193693318
 21
49.1
 31
0.0
  0
LINE
  5
CC
330
1F
100
AcDbEntity
  8
0
  6
Continuous
 62
     7
100
AcDbLine
 10
81.76018193693318
 20
49.1
 30
0.0
 11
82.16018193693318
 21
48.6
 31
0.0
  0
LINE
  5
CD
330
1F
100
AcDbEntity
  8
0
  6
Continuous
 62
     7
100
AcDbLine
 10
80.86018193693317
 20
49.1
 30
0.0
 11
81.36018193693317
 21
48.6
 31
0.0
  0
LINE
  5
CE
330
1F
100
AcDbEntity
  8
0
  6
Continuous
 62
     7
100
AcDbLine
 10
80.86018193693317
 20
53.1
 30
0.0
 11
80.86018193693317
 21
49.1
 31
0.0
  0
LINE
  5
CF
330
1F
100
AcDbEntity
  8
0
  6
Continuous
 62
     7
100
AcDbLine
 10
81.76018193693318
 20
49.1
 30
0.0
 11
81.36018193693317
 21
48.6
 31
0.0
  0
LINE
  5
D0
330
1F
100
AcDbEntity
  8
0
  6
Continuous
 62
     7
100
AcDbLine
 10
88.96018193693322
 20
53.1
 30
0.0
 11
88.56018193693318
 21
53.6
 31
0.0
  0
LINE
  5
D1
330
1F
100
AcDbEntity
  8
0
  6
Continuous
 62
     7
100
AcDbLine
 10
87.36018193693317
 20
53.1
 30
0.0
 11
87.76018193693318
 21
53.6
 31
0.0
  0
LINE
  5
D2
330
1F
100
AcDbEntity
  8
0
  6
Continuous
 62
     7
100
AcDbLine
 10
88.96018193693322
 20
53.1
 30
0.0
 11
89.36018193693322
 21
53.6
 31
0.0
  0
LINE
  5
D3
330
1F
100
AcDbEntity
  8
0
  6
Continuous
 62
     7
100
AcDbLine
 10
88.16018193693318
 20
53.1
 30
0.0
 11
88.56018193693318
 21
53.6
 31
0.0
  0
LINE
  5
D4
330
1F
100
AcDbEntity
  8
0
  6
Continuous
 62
     7
100
AcDbLine
 10
89.76018193693322
 20
53.1
 30
0.0
 11
89.36018193693322
 21
53.6
 31
0.0
  0
LINE
  5
D5
330
1F
100
AcDbEntity
  8
0
  6
Continuous
 62
     7
100
AcDbLine
 10
89.76018193693322
 20
53.1
 30
0.0
 11
89.86592361405442
 21
53.2321770964015
 31
0.0
  0
LINE
  5
D6
330
1F
100
AcDbEntity
  8
0
  6
Continuous
 62
     7
100
AcDbLine
 10
89.86592361405442
 20
53.2321770964015
 30
0.0
 11
89.86592361405442
 21
54.6
 31
0.0
  0
LINE
  5
D7
330
1F
100
AcDbEntity
  8
0
  6
Continuous
 62
     7
100
AcDbLine
 10
88.16018193693318
 20
53.1
 30
0.0
 11
87.76018193693318
 21
53.6
 31
0.0
  0
LINE
  5
D8
330
1F
100
AcDbEntity
  8
0
  6
Continuous
 62
     7
100
AcDbLine
 10
87.36018193693317
 20
53.1
 30
0.0
 11
86.96018193693318
 21
53.6
 31
0.0
  0
LINE
  5
D9
330
1F
100
AcDbEntity
  8
0
  6
Continuous
 62
     7
100
AcDbLine
 10
86.56018193693318
 20
53.1
 30
0.0
 11
86.96018193693318
 21
53.6
 31
0.0
  0
LINE
  5
DA
330
1F
100
AcDbEntity
  8
0
  6
Continuous
 62
     7
100
AcDbLine
 10
85.76018193693318
 20
53.1
 30
0.0
 11
86.16018193693318
 21
53.6
 31
0.0
  0
LINE
  5
DB
330
1F
100
AcDbEntity
  8
0
  6
Continuous
 62
     7
100
AcDbLine
 10
86.56018193693318
 20
53.1
 30
0.0
 11
86.16018193693318
 21
53.6
 31
0.0
  0
LINE
  5
DC
330
1F
100
AcDbEntity
  8
0
  6
Continuous
 62
     7
100
AcDbLine
 10
84.96018193693318
 20
53.1
 30
0.0
 11
85.36018193693317
 21
53.6
 31
0.0
  0
LINE
  5
DD
330
1F
100
AcDbEntity
  8
0
  6
Continuous
 62
     7
100
AcDbLine
 10
85.76018193693318
 20
53.1
 30
0.0
 11
85.36018193693317
 21
53.6
 31
0.0
  0
LINE
  5
DE
330
1F
100
AcDbEntity
  8
0
  6
Continuous
 62
     7
100
AcDbLine
 10
84.16018193693318
 20
53.1
 30
0.0
 11
84.56018193693318
 21
53.6
 31
0.0
  0
LINE
  5
DF
330
1F
100
AcDbEntity
  8
0
  6
Continuous
 62
     7
100
AcDbLine
 10
84.96018193693318
 20
53.1
 30
0.0
 11
84.56018193693318
 21
53.6
 31
0.0
  0
LINE
  5
E0
330
1F
100
AcDbEntity
  8
0
  6
Continuous
 62
     7
100
AcDbLine
 10
84.16018193693318
 20
53.1
 30
0.0
 11
83.76018193693318
 21
53.6
 31
0.0
  0
LINE
  5
E1
330
1F
100
AcDbEntity
  8
0
  6
Continuous
 62
     7
100
AcDbLine
 10
82.56018193693318
 20
53.1
 30
0.0
 11
82.96018193693318
 21
53.6
 31
0.0
  0
LINE
  5
E2
330
1F
100
AcDbEntity
  8
0
  6
Continuous
 62
     7
100
AcDbLine
 10
83.36018193693317
 20
53.1
 30
0.0
 11
83.76018193693318
 21
53.6
 31
0.0
  0
LINE
  5
E3
330
1F
100
AcDbEntity
  8
0
  6
Continuous
 62
     7
100
AcDbLine
 10
83.36018193693317
 20
53.1
 30
0.0
 11
82.96018193693318
 21
53.6
 31
0.0
  0
LINE
  5
E4
330
1F
100
AcDbEntity
  8
0
  6
Continuous
 62
     7
100
AcDbLine
 10
81.76018193693318
 20
53.1
 30
0.0
 11
82.16018193693318
 21
53.6
 31
0.0
  0
LINE
  5
E5
330
1F
100
AcDbEntity
  8
0
  6
Continuous
 62
     7
100
AcDbLine
 10
82.56018193693318
 20
53.1
 30
0.0
 11
82.16018193693318
 21
53.6
 31
0.0
  0
LINE
  5
E6
330
1F
100
AcDbEntity
  8
0
  6
Continuous
 62
     7
100
AcDbLine
 10
84.56018193693318
 20
53.6
 30
0.0
 11
84.56018193693318
 21
48.6
 31
0.0
  0
LINE
  5
E7
330
1F
100
AcDbEntity
  8
0
  6
Continuous
 62
     7
100
AcDbLine
 10
85.36018193693317
 20
53.6
 30
0.0
 11
85.36018193693317
 21
48.6
 31
0.0
  0
LINE
  5
E8
330
1F
100
AcDbEntity
  8
0
  6
Continuous
 62
     7
100
AcDbLine
 10
86.96018193693318
 20
53.6
 30
0.0
 11
86.96018193693318
 21
48.6
 31
0.0
  0
LINE
  5
E9
330
1F
100
AcDbEntity
  8
0
  6
Continuous
 62
     7
100
AcDbLine
 10
87.76018193693318
 20
53.6
 30
0.0
 11
87.76018193693318
 21
48.6
 31
0.0
  0
LINE
  5
EA
330
1F
100
AcDbEntity
  8
0
  6
Continuous
 62
     7
100
AcDbLine
 10
96.86592361405442
 20
54.6
 30
0.0
 11
89.86592361405442
 21
54.6
 31
0.0
  0
LINE
  5
EB
330
1F
100
AcDbEntity
  8
0
  6
Continuous
 62
     7
100
AcDbLine
 10
104.8601819369332
 20
54.9479327524001
 30
0.0
 11
96.86592361405442
 21
54.9479327524001
 31
0.0
  0
LINE
  5
EC
330
1F
100
AcDbEntity
  8
0
  6
Continuous
 62
     7
100
AcDbLine
 10
88.56018193693318
 20
53.6
 30
0.0
 11
88.56018193693318
 21
48.6
 31
0.0
  0
LINE
  5
ED
330
1F
100
AcDbEntity
  8
0
  6
Continuous
 62
     7
100
AcDbLine
 10
86.16018193693318
 20
53.6
 30
0.0
 11
86.16018193693318
 21
48.6
 31
0.0
  0
LINE
  5
EE
330
1F
100
AcDbEntity
  8
0
  6
Continuous
 62
     7
100
AcDbLine
 10
82.96018193693318
 20
53.6
 30
0.0
 11
82.96018193693318
 21
48.6
 31
0.0
  0
LINE
  5
EF
330
1F
100
AcDbEntity
  8
0
  6
Continuous
 62
     7
100
AcDbLine
 10
83.76018193693318
 20
53.6
 30
0.0
 11
83.76018193693318
 21
48.6
 31
0.0
  0
LINE
  5
F0
330
1F
100
AcDbEntity
  8
0
  6
Continuous
 62
     7
100
AcDbLine
 10
82.16018193693318
 20
53.6
 30
0.0
 11
82.16018193693318
 21
48.6
 31
0.0
  0
LINE
  5
F1
330
1F
100
AcDbEntity
  8
0
  6
Continuous
 62
     7
100
AcDbLine
 10
80.86018193693317
 20
53.1
 30
0.0
 11
81.36018193693317
 21
53.6
 31
0.0
  0
LINE
  5
F2
330
1F
100
AcDbEntity
  8
0
  6
Continuous
 62
     7
100
AcDbLine
 10
81.36018193693317
 20
53.6
 30
0.0
 11
81.36018193693317
 21
48.6
 31
0.0
  0
LINE
  5
F3
330
1F
100
AcDbEntity
  8
0
  6
Continuous
 62
     7
100
AcDbLine
 10
81.76018193693318
 20
53.1
 30
0.0
 11
81.36018193693317
 21
53.6
 31
0.0
  0
LINE
  5
F4
330
1F
100
AcDbEntity
  8
0
  6
Continuous
 62
     7
100
AcDbLine
 10
89.86592361405442
 20
45.1
 30
0.0
 11
89.86592361405442
 21
47.6
 31
0.0
  0
LINE
  5
F5
330
1F
100
AcDbEntity
  8
0
  6
Continuous
 62
     7
100
AcDbLine
 10
96.86592361405442
 20
40.1
 30
0.0
 11
96.86592361405442
 21
47.6
 31
0.0
  0
LINE
  5
F6
330
1F
100
AcDbEntity
  8
0
  6
Continuous
 62
     7
100
AcDbLine
 10
104.8601819369332
 20
57.1
 30
0.0
 11
104.8601819369332
 21
54.6
 31
0.0
  0
LINE
  5
F7
330
1F
100
AcDbEntity
  8
0
  6
Continuous
 62
     7
100
AcDbLine
 10
96.86592361405442
 20
57.1
 30
0.0
 11
104.8601819369332
 21
57.1
 31
0.0
  0
LINE
  5
F8
330
1F
100
AcDbEntity
  8
0
  6
Continuous
 62
     7
100
AcDbLine
 10
96.86592361405442
 20
54.6
 30
0.0
 11
96.86592361405442
 21
57.1
 31
0.0
  0
LINE
  5
F9
330
1F
100
AcDbEntity
  8
0
  6
Continuous
 62
     7
100
AcDbLine
 10
96.86592361405442
 20
57.1
 30
0.0
 11
89.86592361405442
 21
57.1
 31
0.0
  0
LINE
  5
FA
330
1F
100
AcDbEntity
  8
0
  6
Continuous
 62
     7
100
AcDbLine
 10
89.86592361405442
 20
54.6
 30
0.0
 11
89.86592361405442
 21
57.1
 31
0.0
  0
LINE
  5
FB
330
1F
100
AcDbEntity
  8
0
  6
Continuous
 62
     7
100
AcDbLine
 10
115.3662124757181
 20
25.1
 30
0.0
 11
115.3662124757181
 21
-19.9
 31
0.0
  0
LINE
  5
FC
330
1F
100
AcDbEntity
  8
0
  6
Continuous
 62
     7
100
AcDbLine
 10
115.3662124757181
 20
-19.9
 30
0.0
 11
115.3662124757181
 21
-22.9
 31
0.0
  0
LINE
  5
FD
330
1F
100
AcDbEntity
  8
0
  6
Continuous
 62
     7
100
AcDbLine
 10
115.3662124757181
 20
-36.4
 30
0.0
 11
115.3662124757181
 21
-34.9
 31
0.0
  0
LINE
  5
FE
330
1F
100
AcDbEntity
  8
0
  6
Continuous
 62
     7
100
AcDbLine
 10
115.3662124757181
 20
-39.4
 30
0.0
 11
115.3662124757181
 21
-40.9
 31
0.0
  0
LINE
  5
FF
330
1F
100
AcDbEntity
  8
0
  6
Continuous
 62
     7
100
AcDbLine
 10
115.3662124757181
 20
-36.4
 30
0.0
 11
115.3662124757181
 21
-37.9
 31
0.0
  0
LINE
  5
100
330
1F
100
AcDbEntity
  8
0
  6
Continuous
 62
     7
100
AcDbLine
 10
115.3662124757181
 20
-39.4
 30
0.0
 11
115.3662124757181
 21
-37.9
 31
0.0
  0
LINE
  5
101
330
1F
100
AcDbEntity
  8
0
  6
Continuous
 62
     7
100
AcDbLine
 10
115.3662124757181
 20
-33.4
 30
0.0
 11
115.3662124757181
 21
-34.9
 31
0.0
  0
LINE
  5
102
330
1F
100
AcDbEntity
  8
0
  6
Continuous
 62
     7
100
AcDbLine
 10
115.3662124757181
 20
-33.4
 30
0.0
 11
115.3662124757181
 21
-31.9
 31
0.0
  0
LINE
  5
103
330
1F
100
AcDbEntity
  8
0
  6
Continuous
 62
     7
100
AcDbLine
 10
115.3662124757181
 20
-30.4
 30
0.0
 11
115.3662124757181
 21
-31.9
 31
0.0
  0
LINE
  5
104
330
1F
100
AcDbEntity
  8
0
  6
Continuous
 62
     7
100
AcDbLine
 10
115.3662124757181
 20
-30.4
 30
0.0
 11
115.3662124757181
 21
-28.9
 31
0.0
  0
LINE
  5
105
330
1F
100
AcDbEntity
  8
0
  6
Continuous
 62
     7
100
AcDbLine
 10
115.3662124757181
 20
-27.4
 30
0.0
 11
115.3662124757181
 21
-28.9
 31
0.0
  0
LINE
  5
106
330
1F
100
AcDbEntity
  8
0
  6
Continuous
 62
     7
100
AcDbLine
 10
115.3662124757181
 20
-27.4
 30
0.0
 11
115.3662124757181
 21
-25.9
 31
0.0
  0
LINE
  5
107
330
1F
100
AcDbEntity
  8
0
  6
Continuous
 62
     7
100
AcDbLine
 10
115.3662124757181
 20
-24.4
 30
0.0
 11
115.3662124757181
 21
-25.9
 31
0.0
  0
LINE
  5
108
330
1F
100
AcDbEntity
  8
0
  6
Continuous
 62
     7
100
AcDbLine
 10
115.3662124757181
 20
-24.4
 30
0.0
 11
115.3662124757181
 21
-22.9
 31
0.0
  0
LINE
  5
109
330
1F
100
AcDbEntity
  8
0
  6
Continuous
 62
     7
100
AcDbLine
 10
121.366212475718
 20
-39.40000000000001
 30
0.0
 11
122.3662124757181
 21
-40.9
 31
0.0
  0
LINE
  5
10A
330
1F
100
AcDbEntity
  8
0
  6
Continuous
 62
     7
100
AcDbLine
 10
122.3662124757181
 20
-34.9
 30
0.0
 11
115.3662124757181
 21
-34.9
 31
0.0
  0
LINE
  5
10B
330
1F
100
AcDbEntity
  8
0
  6
Continuous
 62
     7
100
AcDbLine
 10
121.366212475718
 20
-39.40000000000001
 30
0.0
 11
115.3662124757181
 21
-39.4
 31
0.0
  0
LINE
  5
10C
330
1F
100
AcDbEntity
  8
0
  6
Continuous
 62
     7
100
AcDbLine
 10
121.3662124757181
 20
-36.4
 30
0.0
 11
115.3662124757181
 21
-36.4
 31
0.0
  0
LINE
  5
10D
330
1F
100
AcDbEntity
  8
0
  6
Continuous
 62
     7
100
AcDbLine
 10
122.3662124757181
 20
-37.9
 30
0.0
 11
115.3662124757181
 21
-37.9
 31
0.0
  0
LINE
  5
10E
330
1F
100
AcDbEntity
  8
0
  6
Continuous
 62
     7
100
AcDbLine
 10
115.3662124757181
 20
-40.9
 30
0.0
 11
122.3662124757181
 21
-40.9
 31
0.0
  0
LINE
  5
10F
330
1F
100
AcDbEntity
  8
0
  6
Continuous
 62
     7
100
AcDbLine
 10
115.3662124757181
 20
-52.9
 30
0.0
 11
122.3662124757181
 21
-52.9
 31
0.0
  0
LINE
  5
110
330
1F
100
AcDbEntity
  8
0
  6
Continuous
 62
     7
100
AcDbLine
 10
121.3662124757181
 20
-24.4
 30
0.0
 11
122.3662124757181
 21
-25.9
 31
0.0
  0
LINE
  5
111
330
1F
100
AcDbEntity
  8
0
  6
Continuous
 62
     7
100
AcDbLine
 10
122.3662124757181
 20
-16.90000000000001
 30
0.0
 11
122.3662124757181
 21
-19.9
 31
0.0
  0
LINE
  5
112
330
1F
100
AcDbEntity
  8
0
  6
Continuous
 62
     7
100
AcDbLine
 10
122.3662124757181
 20
25.1
 30
0.0
 11
122.3662124757181
 21
16.09999999999999
 31
0.0
  0
LINE
  5
113
330
1F
100
AcDbEntity
  8
0
  6
Continuous
 62
     7
100
AcDbLine
 10
121.3662124757181
 20
15.1
 30
0.0
 11
122.3662124757181
 21
16.09999999999999
 31
0.0
  0
LINE
  5
114
330
1F
100
AcDbEntity
  8
0
  6
Continuous
 62
     7
100
AcDbLine
 10
122.3662124757181
 20
25.1
 30
0.0
 11
115.3662124757181
 21
25.1
 31
0.0
  0
LINE
  5
115
330
1F
100
AcDbEntity
  8
0
  6
Continuous
 62
     7
100
AcDbLine
 10
121.3662124757181
 20
-15.9
 30
0.0
 11
121.3662124757181
 21
15.1
 31
0.0
  0
LINE
  5
116
330
1F
100
AcDbEntity
  8
0
  6
Continuous
 62
     7
100
AcDbLine
 10
122.3662124757181
 20
-40.9
 30
0.0
 11
122.3662124757181
 21
-52.9
 31
0.0
  0
LINE
  5
117
330
1F
100
AcDbEntity
  8
0
  6
Continuous
 62
     7
100
AcDbLine
 10
121.3662124757181
 20
-24.4
 30
0.0
 11
122.3662124757181
 21
-22.9
 31
0.0
  0
LINE
  5
118
330
1F
100
AcDbEntity
  8
0
  6
Continuous
 62
     7
100
AcDbLine
 10
121.3662124757181
 20
-27.4
 30
0.0
 11
122.3662124757181
 21
-25.9
 31
0.0
  0
LINE
  5
119
330
1F
100
AcDbEntity
  8
0
  6
Continuous
 62
     7
100
AcDbLine
 10
121.3662124757181
 20
-27.4
 30
0.0
 11
122.3662124757181
 21
-28.9
 31
0.0
  0
LINE
  5
11A
330
1F
100
AcDbEntity
  8
0
  6
Continuous
 62
     7
100
AcDbLine
 10
121.3662124757181
 20
-30.4
 30
0.0
 11
122.3662124757181
 21
-28.9
 31
0.0
  0
LINE
  5
11B
330
1F
100
AcDbEntity
  8
0
  6
Continuous
 62
     7
100
AcDbLine
 10
121.3662124757181
 20
-30.4
 30
0.0
 11
122.3662124757181
 21
-31.9
 31
0.0
  0
LINE
  5
11C
330
1F
100
AcDbEntity
  8
0
  6
Continuous
 62
     7
100
AcDbLine
 10
121.3662124757181
 20
-33.4
 30
0.0
 11
122.3662124757181
 21
-31.9
 31
0.0
  0
LINE
  5
11D
330
1F
100
AcDbEntity
  8
0
  6
Continuous
 62
     7
100
AcDbLine
 10
121.3662124757181
 20
-33.4
 30
0.0
 11
122.3662124757181
 21
-34.9
 31
0.0
  0
LINE
  5
11E
330
1F
100
AcDbEntity
  8
0
  6
Continuous
 62
     7
100
AcDbLine
 10
121.366212475718
 20
-39.40000000000001
 30
0.0
 11
122.3662124757181
 21
-37.9
 31
0.0
  0
LINE
  5
11F
330
1F
100
AcDbEntity
  8
0
  6
Continuous
 62
     7
100
AcDbLine
 10
121.3662124757181
 20
-36.4
 30
0.0
 11
122.3662124757181
 21
-37.9
 31
0.0
  0
LINE
  5
120
330
1F
100
AcDbEntity
  8
0
  6
Continuous
 62
     7
100
AcDbLine
 10
121.3662124757181
 20
-36.4
 30
0.0
 11
122.3662124757181
 21
-34.9
 31
0.0
  0
LINE
  5
121
330
1F
100
AcDbEntity
  8
0
  6
Continuous
 62
     7
100
AcDbLine
 10
121.3662124757181
 20
-33.4
 30
0.0
 11
115.3662124757181
 21
-33.4
 31
0.0
  0
LINE
  5
122
330
1F
100
AcDbEntity
  8
0
  6
Continuous
 62
     7
100
AcDbLine
 10
122.3662124757181
 20
-31.9
 30
0.0
 11
115.3662124757181
 21
-31.9
 31
0.0
  0
LINE
  5
123
330
1F
100
AcDbEntity
  8
0
  6
Continuous
 62
     7
100
AcDbLine
 10
121.3662124757181
 20
-30.4
 30
0.0
 11
115.3662124757181
 21
-30.4
 31
0.0
  0
LINE
  5
124
330
1F
100
AcDbEntity
  8
0
  6
Continuous
 62
     7
100
AcDbLine
 10
121.3662124757181
 20
-24.4
 30
0.0
 11
115.3662124757181
 21
-24.4
 31
0.0
  0
LINE
  5
125
330
1F
100
AcDbEntity
  8
0
  6
Continuous
 62
     7
100
AcDbLine
 10
122.3662124757181
 20
-25.9
 30
0.0
 11
115.3662124757181
 21
-25.9
 31
0.0
  0
LINE
  5
126
330
1F
100
AcDbEntity
  8
0
  6
Continuous
 62
     7
100
AcDbLine
 10
121.3662124757181
 20
-27.4
 30
0.0
 11
115.3662124757181
 21
-27.4
 31
0.0
  0
LINE
  5
127
330
1F
100
AcDbEntity
  8
0
  6
Continuous
 62
     7
100
AcDbLine
 10
122.3662124757181
 20
-28.9
 30
0.0
 11
115.3662124757181
 21
-28.9
 31
0.0
  0
LINE
  5
128
330
1F
100
AcDbEntity
  8
0
  6
Continuous
 62
     7
100
AcDbLine
 10
115.3662124757181
 20
-40.9
 30
0.0
 11
115.3662124757181
 21
-52.9
 31
0.0
  0
LINE
  5
129
330
1F
100
AcDbEntity
  8
0
  6
Continuous
 62
     7
100
AcDbLine
 10
123.8662124757181
 20
-44.0
 30
0.0
 11
123.8662124757181
 21
-48.80000000000001
 31
0.0
  0
LINE
  5
12A
330
1F
100
AcDbEntity
  8
0
  6
Continuous
 62
     7
100
AcDbLine
 10
123.8662124757181
 20
-48.80000000000001
 30
0.0
 11
128.8662124757181
 21
-48.8
 31
0.0
  0
LINE
  5
12B
330
1F
100
AcDbEntity
  8
0
  6
Continuous
 62
     7
100
AcDbLine
 10
128.8662124757181
 20
-48.8
 30
0.0
 11
128.8662124757181
 21
-44.0
 31
0.0
  0
LINE
  5
12C
330
1F
100
AcDbEntity
  8
0
  6
Continuous
 62
     7
100
AcDbLine
 10
123.8662124757181
 20
-44.0
 30
0.0
 11
128.8662124757181
 21
-44.0
 31
0.0
  0
LINE
  5
12D
330
1F
100
AcDbEntity
  8
0
  6
Continuous
 62
     7
100
AcDbLine
 10
86.36621247571807
 20
-52.9
 30
0.0
 11
115.3662124757181
 21
-52.9
 31
0.0
  0
LINE
  5
12E
330
1F
100
AcDbEntity
  8
0
  6
Continuous
 62
     7
100
AcDbLine
 10
102.9379650572545
 20
-24.4
 30
0.0
 11
102.3606147880649
 21
-22.9
 31
0.0
  0
LINE
  5
12F
330
1F
100
AcDbEntity
  8
0
  6
Continuous
 62
     7
100
AcDbLine
 10
99.36061478806492
 20
-22.9
 30
0.0
 11
98.78326451887521
 21
-24.4
 31
0.0
  0
LINE
  5
130
330
1F
100
AcDbEntity
  8
0
  6
Continuous
 62
     7
100
AcDbLine
 10
98.78326451887521
 20
-36.4
 30
0.0
 11
99.36061478806492
 21
-37.9
 31
0.0
  0
LINE
  5
131
330
1F
100
AcDbEntity
  8
0
  6
Continuous
 62
     7
100
AcDbLine
 10
99.36061478806492
 20
-34.9
 30
0.0
 11
98.78326451887521
 21
-36.4
 31
0.0
  0
LINE
  5
132
330
1F
100
AcDbEntity
  8
0
  6
Continuous
 62
     7
100
AcDbLine
 10
102.3606147880649
 20
-25.9
 30
0.0
 11
102.9379650572545
 21
-24.4
 31
0.0
  0
LINE
  5
133
330
1F
100
AcDbEntity
  8
0
  6
Continuous
 62
     7
100
AcDbLine
 10
102.9379650572545
 20
-27.4
 30
0.0
 11
102.3606147880649
 21
-25.9
 31
0.0
  0
LINE
  5
134
330
1F
100
AcDbEntity
  8
0
  6
Continuous
 62
     7
100
AcDbLine
 10
99.36061478806492
 20
-31.9
 30
0.0
 11
98.78326451887533
 21
-33.4
 31
0.0
  0
LINE
  5
135
330
1F
100
AcDbEntity
  8
0
  6
Continuous
 62
     7
100
AcDbLine
 10
102.3606147880649
 20
-31.9
 30
0.0
 11
102.9379650572545
 21
-30.4
 31
0.0
  0
LINE
  5
136
330
1F
100
AcDbEntity
  8
0
  6
Continuous
 62
     7
100
AcDbLine
 10
98.78326451887533
 20
-30.4
 30
0.0
 11
99.36061478806492
 21
-31.9
 31
0.0
  0
LINE
  5
137
330
1F
100
AcDbEntity
  8
0
  6
Continuous
 62
     7
100
AcDbLine
 10
99.36061478806492
 20
-28.9
 30
0.0
 11
98.78326451887533
 21
-30.4
 31
0.0
  0
LINE
  5
138
330
1F
100
AcDbEntity
  8
0
  6
Continuous
 62
     7
100
AcDbLine
 10
102.3606147880649
 20
-28.9
 30
0.0
 11
102.9379650572545
 21
-27.4
 31
0.0
  0
LINE
  5
139
330
1F
100
AcDbEntity
  8
0
  6
Continuous
 62
     7
100
AcDbLine
 10
98.78326451887521
 20
-27.4
 30
0.0
 11
99.36061478806492
 21
-28.9
 31
0.0
  0
LINE
  5
13A
330
1F
100
AcDbEntity
  8
0
  6
Continuous
 62
     7
100
AcDbLine
 10
99.36061478806492
 20
-25.9
 30
0.0
 11
98.78326451887521
 21
-27.4
 31
0.0
  0
LINE
  5
13B
330
1F
100
AcDbEntity
  8
0
  6
Continuous
 62
     7
100
AcDbLine
 10
98.78326451887521
 20
-24.4
 30
0.0
 11
99.36061478806492
 21
-25.9
 31
0.0
  0
LINE
  5
13C
330
1F
100
AcDbEntity
  8
0
  6
Continuous
 62
     7
100
AcDbLine
 10
102.3606147880649
 20
-22.9
 30
0.0
 11
115.3662124757181
 21
-22.9
 31
0.0
  0
LINE
  5
13D
330
1F
100
AcDbEntity
  8
0
  6
Continuous
 62
     7
100
AcDbLine
 10
86.36621247571807
 20
-19.9
 30
0.0
 11
115.3662124757181
 21
-19.9
 31
0.0
  0
LINE
  5
13E
330
1F
100
AcDbEntity
  8
0
  6
Continuous
 62
     7
100
AcDbLine
 10
122.3662124757181
 20
-16.90000000000001
 30
0.0
 11
121.3662124757181
 21
-15.9
 31
0.0
  0
LINE
  5
13F
330
1F
100
AcDbEntity
  8
0
  6
Continuous
 62
     7
100
AcDbLine
 10
80.36621247571807
 20
-15.9
 30
0.0
 11
79.36621247571807
 21
-16.90000000000002
 31
0.0
  0
LINE
  5
140
330
1F
100
AcDbEntity
  8
0
  6
Continuous
 62
     7
100
AcDbLine
 10
115.3662124757181
 20
-19.9
 30
0.0
 11
122.3662124757181
 21
-19.9
 31
0.0
  0
LINE
  5
141
330
1F
100
AcDbEntity
  8
0
  6
Continuous
 62
     7
100
AcDbLine
 10
79.36621247571807
 20
-19.90000000000001
 30
0.0
 11
86.36621247571807
 21
-19.9
 31
0.0
  0
LINE
  5
142
330
1F
100
AcDbEntity
  8
0
  6
Continuous
 62
     7
100
AcDbLine
 10
122.3662124757181
 20
-19.9
 30
0.0
 11
122.3662124757181
 21
-22.9
 31
0.0
  0
LINE
  5
143
330
1F
100
AcDbEntity
  8
0
  6
Continuous
 62
     7
100
AcDbLine
 10
79.36621247571807
 20
-19.90000000000001
 30
0.0
 11
79.36621247571807
 21
-22.9
 31
0.0
  0
LINE
  5
144
330
1F
100
AcDbEntity
  8
0
  6
Continuous
 62
     7
100
AcDbLine
 10
86.36621247571807
 20
-22.9
 30
0.0
 11
79.36621247571807
 21
-22.9
 31
0.0
  0
LINE
  5
145
330
1F
100
AcDbEntity
  8
0
  6
Continuous
 62
     7
100
AcDbLine
 10
86.36621247571807
 20
-19.9
 30
0.0
 11
86.36621247571807
 21
-22.9
 31
0.0
  0
LINE
  5
146
330
1F
100
AcDbEntity
  8
0
  6
Continuous
 62
     7
100
AcDbLine
 10
122.3662124757181
 20
-22.9
 30
0.0
 11
115.3662124757181
 21
-22.9
 31
0.0
  0
LINE
  5
147
330
1F
100
AcDbEntity
  8
0
  6
Continuous
 62
     7
100
AcDbLine
 10
86.36621247571807
 20
-22.9
 30
0.0
 11
99.36061478806492
 21
-22.9
 31
0.0
  0
LINE
  5
148
330
1F
100
AcDbEntity
  8
0
  6
Continuous
 62
     7
100
AcDbLine
 10
99.36061478806492
 20
-25.9
 30
0.0
 11
86.36621247571807
 21
-25.9
 31
0.0
  0
LINE
  5
149
330
1F
100
AcDbEntity
  8
0
  6
Continuous
 62
     7
100
AcDbLine
 10
98.78326451887521
 20
-24.4
 30
0.0
 11
86.36621247571807
 21
-24.4
 31
0.0
  0
LINE
  5
14A
330
1F
100
AcDbEntity
  8
0
  6
Continuous
 62
     7
100
AcDbLine
 10
115.3662124757181
 20
-24.4
 30
0.0
 11
102.9379650572545
 21
-24.4
 31
0.0
  0
LINE
  5
14B
330
1F
100
AcDbEntity
  8
0
  6
Continuous
 62
     7
100
AcDbLine
 10
102.3606147880649
 20
-25.9
 30
0.0
 11
102.3606147880649
 21
-22.9
 31
0.0
  0
LINE
  5
14C
330
1F
100
AcDbEntity
  8
0
  6
Continuous
 62
     7
100
AcDbLine
 10
115.3662124757181
 20
-25.9
 30
0.0
 11
102.3606147880649
 21
-25.9
 31
0.0
  0
LINE
  5
14D
330
1F
100
AcDbEntity
  8
0
  6
Continuous
 62
     7
100
AcDbLine
 10
98.78326451887521
 20
-27.4
 30
0.0
 11
86.36621247571807
 21
-27.4
 31
0.0
  0
LINE
  5
14E
330
1F
100
AcDbEntity
  8
0
  6
Continuous
 62
     7
100
AcDbLine
 10
115.3662124757181
 20
-27.4
 30
0.0
 11
102.9379650572545
 21
-27.4
 31
0.0
  0
LINE
  5
14F
330
1F
100
AcDbEntity
  8
0
  6
Continuous
 62
     7
100
AcDbLine
 10
99.36061478806492
 20
-28.9
 30
0.0
 11
86.36621247571807
 21
-28.9
 31
0.0
  0
LINE
  5
150
330
1F
100
AcDbEntity
  8
0
  6
Continuous
 62
     7
100
AcDbLine
 10
115.3662124757181
 20
-28.9
 30
0.0
 11
102.3606147880649
 21
-28.9
 31
0.0
  0
LINE
  5
151
330
1F
100
AcDbEntity
  8
0
  6
Continuous
 62
     7
100
AcDbLine
 10
102.3606147880649
 20
-28.9
 30
0.0
 11
102.3606147880649
 21
-25.9
 31
0.0
  0
LINE
  5
152
330
1F
100
AcDbEntity
  8
0
  6
Continuous
 62
     7
100
AcDbLine
 10
98.78326451887533
 20
-30.4
 30
0.0
 11
86.36621247571807
 21
-30.4
 31
0.0
  0
LINE
  5
153
330
1F
100
AcDbEntity
  8
0
  6
Continuous
 62
     7
100
AcDbLine
 10
115.3662124757181
 20
-30.4
 30
0.0
 11
102.9379650572545
 21
-30.4
 31
0.0
  0
LINE
  5
154
330
1F
100
AcDbEntity
  8
0
  6
Continuous
 62
     7
100
AcDbLine
 10
99.36061478806492
 20
-31.9
 30
0.0
 11
86.36621247571807
 21
-31.9
 31
0.0
  0
LINE
  5
155
330
1F
100
AcDbEntity
  8
0
  6
Continuous
 62
     7
100
AcDbLine
 10
102.9379650572545
 20
-30.4
 30
0.0
 11
102.3606147880649
 21
-28.9
 31
0.0
  0
LINE
  5
156
330
1F
100
AcDbEntity
  8
0
  6
Continuous
 62
     7
100
AcDbLine
 10
115.3662124757181
 20
-31.9
 30
0.0
 11
102.3606147880649
 21
-31.9
 31
0.0
  0
LINE
  5
157
330
1F
100
AcDbEntity
  8
0
  6
Continuous
 62
     7
100
AcDbLine
 10
102.3606147880649
 20
-31.9
 30
0.0
 11
102.3606147880649
 21
-28.9
 31
0.0
  0
LINE
  5
158
330
1F
100
AcDbEntity
  8
0
  6
Continuous
 62
     7
100
AcDbLine
 10
98.78326451887533
 20
-33.4
 30
0.0
 11
86.36621247571807
 21
-33.4
 31
0.0
  0
LINE
  5
159
330
1F
100
AcDbEntity
  8
0
  6
Continuous
 62
     7
100
AcDbLine
 10
115.3662124757181
 20
-33.4
 30
0.0
 11
102.9379650572545
 21
-33.4
 31
0.0
  0
LINE
  5
15A
330
1F
100
AcDbEntity
  8
0
  6
Continuous
 62
     7
100
AcDbLine
 10
99.36061478806492
 20
-34.9
 30
0.0
 11
86.36621247571807
 21
-34.9
 31
0.0
  0
LINE
  5
15B
330
1F
100
AcDbEntity
  8
0
  6
Continuous
 62
     7
100
AcDbLine
 10
98.78326451887533
 20
-33.4
 30
0.0
 11
99.36061478806492
 21
-34.9
 31
0.0
  0
LINE
  5
15C
330
1F
100
AcDbEntity
  8
0
  6
Continuous
 62
     7
100
AcDbLine
 10
102.9379650572545
 20
-33.4
 30
0.0
 11
102.3606147880649
 21
-31.9
 31
0.0
  0
LINE
  5
15D
330
1F
100
AcDbEntity
  8
0
  6
Continuous
 62
     7
100
AcDbLine
 10
115.3662124757181
 20
-34.9
 30
0.0
 11
102.3606147880649
 21
-34.9
 31
0.0
  0
LINE
  5
15E
330
1F
100
AcDbEntity
  8
0
  6
Continuous
 62
     7
100
AcDbLine
 10
102.3606147880649
 20
-34.9
 30
0.0
 11
102.3606147880649
 21
-31.9
 31
0.0
  0
LINE
  5
15F
330
1F
100
AcDbEntity
  8
0
  6
Continuous
 62
     7
100
AcDbLine
 10
98.78326451887521
 20
-36.4
 30
0.0
 11
86.36621247571807
 21
-36.4
 31
0.0
  0
LINE
  5
160
330
1F
100
AcDbEntity
  8
0
  6
Continuous
 62
     7
100
AcDbLine
 10
102.3606147880649
 20
-34.9
 30
0.0
 11
102.9379650572545
 21
-33.4
 31
0.0
  0
LINE
  5
161
330
1F
100
AcDbEntity
  8
0
  6
Continuous
 62
     7
100
AcDbLine
 10
102.9379650572545
 20
-36.4
 30
0.0
 11
102.3606147880649
 21
-34.9
 31
0.0
  0
LINE
  5
162
330
1F
100
AcDbEntity
  8
0
  6
Continuous
 62
     7
100
AcDbLine
 10
115.3662124757181
 20
-36.4
 30
0.0
 11
102.9379650572545
 21
-36.4
 31
0.0
  0
LINE
  5
163
330
1F
100
AcDbEntity
  8
0
  6
Continuous
 62
     7
100
AcDbLine
 10
99.36061478806492
 20
-37.9
 30
0.0
 11
86.36621247571807
 21
-37.9
 31
0.0
  0
LINE
  5
164
330
1F
100
AcDbEntity
  8
0
  6
Continuous
 62
     7
100
AcDbLine
 10
102.3606147880649
 20
-37.9
 30
0.0
 11
102.9379650572545
 21
-36.4
 31
0.0
  0
LINE
  5
165
330
1F
100
AcDbEntity
  8
0
  6
Continuous
 62
     7
100
AcDbLine
 10
115.3662124757181
 20
-37.9
 30
0.0
 11
102.3606147880649
 21
-37.9
 31
0.0
  0
LINE
  5
166
330
1F
100
AcDbEntity
  8
0
  6
Continuous
 62
     7
100
AcDbLine
 10
102.3606147880649
 20
-37.9
 30
0.0
 11
102.3606147880649
 21
-34.9
 31
0.0
  0
LINE
  5
167
330
1F
100
AcDbEntity
  8
0
  6
Continuous
 62
     7
100
AcDbLine
 10
99.36061478806492
 20
-37.9
 30
0.0
 11
98.78326451887533
 21
-39.4
 31
0.0
  0
LINE
  5
168
330
1F
100
AcDbEntity
  8
0
  6
Continuous
 62
     7
100
AcDbLine
 10
102.9379650572545
 20
-39.4
 30
0.0
 11
102.3606147880649
 21
-37.9
 31
0.0
  0
LINE
  5
169
330
1F
100
AcDbEntity
  8
0
  6
Continuous
 62
     7
100
AcDbLine
 10
115.3662124757181
 20
-39.4
 30
0.0
 11
102.9379650572545
 21
-39.4
 31
0.0
  0
LINE
  5
16A
330
1F
100
AcDbEntity
  8
0
  6
Continuous
 62
     7
100
AcDbLine
 10
115.3662124757181
 20
-40.9
 30
0.0
 11
102.3606147880649
 21
-40.9
 31
0.0
  0
LINE
  5
16B
330
1F
100
AcDbEntity
  8
0
  6
Continuous
 62
     7
100
AcDbLine
 10
102.3606147880649
 20
-40.9
 30
0.0
 11
102.9379650572545
 21
-39.4
 31
0.0
  0
LINE
  5
16C
330
1F
100
AcDbEntity
  8
0
  6
Continuous
 62
     7
100
AcDbLine
 10
102.3606147880649
 20
-40.9
 30
0.0
 11
102.3606147880649
 21
-37.9
 31
0.0
  0
LINE
  5
16D
330
1F
100
AcDbEntity
  8
0
  6
Continuous
 62
     7
100
AcDbLine
 10
86.36621247571807
 20
-40.9
 30
0.0
 11
86.36621247571807
 21
-52.9
 31
0.0
  0
LINE
  5
16E
330
1F
100
AcDbEntity
  8
0
  6
Continuous
 62
     7
100
AcDbLine
 10
79.36621247571807
 20
-40.9
 30
0.0
 11
79.36621247571807
 21
-52.9
 31
0.0
  0
LINE
  5
16F
330
1F
100
AcDbEntity
  8
0
  6
Continuous
 62
     7
100
AcDbLine
 10
79.36621247571807
 20
16.09999999999998
 30
0.0
 11
79.36621247571807
 21
25.1
 31
0.0
  0
LINE
  5
170
330
1F
100
AcDbEntity
  8
0
  6
Continuous
 62
     7
100
AcDbLine
 10
79.36621247571807
 20
-19.90000000000001
 30
0.0
 11
79.36621247571807
 21
-16.90000000000002
 31
0.0
  0
LINE
  5
171
330
1F
100
AcDbEntity
  8
0
  6
Continuous
 62
     7
100
AcDbLine
 10
86.36621247571807
 20
25.1
 30
0.0
 11
79.36621247571807
 21
25.1
 31
0.0
  0
LINE
  5
172
330
1F
100
AcDbEntity
  8
0
  6
Continuous
 62
     7
100
AcDbLine
 10
72.86621247571807
 20
-48.8
 30
0.0
 11
72.86621247571807
 21
-44.0
 31
0.0
  0
LINE
  5
173
330
1F
100
AcDbEntity
  8
0
  6
Continuous
 62
     7
100
AcDbLine
 10
72.86621247571807
 20
-48.8
 30
0.0
 11
77.86621247571807
 21
-48.80000000000001
 31
0.0
  0
LINE
  5
174
330
1F
100
AcDbEntity
  8
0
  6
Continuous
 62
     7
100
AcDbLine
 10
77.86621247571807
 20
-44.0
 30
0.0
 11
77.86621247571807
 21
-48.80000000000001
 31
0.0
  0
LINE
  5
175
330
1F
100
AcDbEntity
  8
0
  6
Continuous
 62
     7
100
AcDbLine
 10
72.86621247571807
 20
-44.0
 30
0.0
 11
77.86621247571807
 21
-44.0
 31
0.0
  0
LINE
  5
176
330
1F
100
AcDbEntity
  8
0
  6
Continuous
 62
     7
100
AcDbLine
 10
98.78326451887533
 20
-39.4
 30
0.0
 11
99.36061478806492
 21
-40.9
 31
0.0
  0
LINE
  5
177
330
1F
100
AcDbEntity
  8
0
  6
Continuous
 62
     7
100
AcDbLine
 10
86.36621247571807
 20
-19.9
 30
0.0
 11
86.36621247571807
 21
25.1
 31
0.0
  0
LINE
  5
178
330
1F
100
AcDbEntity
  8
0
  6
Continuous
 62
     7
100
AcDbLine
 10
86.36621247571807
 20
25.1
 30
0.0
 11
86.36621247571807
 21
27.1
 31
0.0
  0
LINE
  5
179
330
1F
100
AcDbEntity
  8
0
  6
Continuous
 62
     7
100
AcDbLine
 10
98.78326451887533
 20
-39.4
 30
0.0
 11
86.36621247571807
 21
-39.4
 31
0.0
  0
LINE
  5
17A
330
1F
100
AcDbEntity
  8
0
  6
Continuous
 62
     7
100
AcDbLine
 10
99.36061478806492
 20
-25.9
 30
0.0
 11
99.36061478806492
 21
-22.9
 31
0.0
  0
LINE
  5
17B
330
1F
100
AcDbEntity
  8
0
  6
Continuous
 62
     7
100
AcDbLine
 10
99.36061478806492
 20
-40.9
 30
0.0
 11
99.36061478806492
 21
-37.9
 31
0.0
  0
LINE
  5
17C
330
1F
100
AcDbEntity
  8
0
  6
Continuous
 62
     7
100
AcDbLine
 10
99.36061478806492
 20
-37.9
 30
0.0
 11
99.36061478806492
 21
-34.9
 31
0.0
  0
LINE
  5
17D
330
1F
100
AcDbEntity
  8
0
  6
Continuous
 62
     7
100
AcDbLine
 10
99.36061478806492
 20
-34.9
 30
0.0
 11
99.36061478806492
 21
-31.9
 31
0.0
  0
LINE
  5
17E
330
1F
100
AcDbEntity
  8
0
  6
Continuous
 62
     7
100
AcDbLine
 10
99.36061478806492
 20
-31.9
 30
0.0
 11
99.36061478806492
 21
-28.9
 31
0.0
  0
LINE
  5
17F
330
1F
100
AcDbEntity
  8
0
  6
Continuous
 62
     7
100
AcDbLine
 10
99.36061478806492
 20
-28.9
 30
0.0
 11
99.36061478806492
 21
-25.9
 31
0.0
  0
LINE
  5
180
330
1F
100
AcDbEntity
  8
0
  6
Continuous
 62
     7
100
AcDbLine
 10
99.36061478806492
 20
-40.9
 30
0.0
 11
86.36621247571807
 21
-40.9
 31
0.0
  0
LINE
  5
181
330
1F
100
AcDbEntity
  8
0
  6
Continuous
 62
     7
100
AcDbLine
 10
80.36621247571807
 20
-27.4
 30
0.0
 11
79.36621247571807
 21
-25.9
 31
0.0
  0
LINE
  5
182
330
1F
100
AcDbEntity
  8
0
  6
Continuous
 62
     7
100
AcDbLine
 10
80.36621247571806
 20
-24.40000000000001
 30
0.0
 11
79.36621247571807
 21
-25.9
 31
0.0
  0
LINE
  5
183
330
1F
100
AcDbEntity
  8
0
  6
Continuous
 62
     7
100
AcDbLine
 10
80.36621247571807
 20
15.09999999999935
 30
0.0
 11
80.36621247571807
 21
-15.9
 31
0.0
  0
LINE
  5
184
330
1F
100
AcDbEntity
  8
0
  6
Continuous
 62
     7
100
AcDbLine
 10
86.36621247571807
 20
-24.4
 30
0.0
 11
80.36621247571806
 21
-24.40000000000001
 31
0.0
  0
LINE
  5
185
330
1F
100
AcDbEntity
  8
0
  6
Continuous
 62
     7
100
AcDbLine
 10
86.36621247571807
 20
-24.4
 30
0.0
 11
86.36621247571807
 21
-22.9
 31
0.0
  0
LINE
  5
186
330
1F
100
AcDbEntity
  8
0
  6
Continuous
 62
     7
100
AcDbLine
 10
86.36621247571807
 20
-24.4
 30
0.0
 11
86.36621247571807
 21
-25.9
 31
0.0
  0
LINE
  5
187
330
1F
100
AcDbEntity
  8
0
  6
Continuous
 62
     7
100
AcDbLine
 10
80.36621247571807
 20
-33.4
 30
0.0
 11
79.36621247571807
 21
-34.9
 31
0.0
  0
LINE
  5
188
330
1F
100
AcDbEntity
  8
0
  6
Continuous
 62
     7
100
AcDbLine
 10
80.36621247571807
 20
-36.4
 30
0.0
 11
79.36621247571807
 21
-34.9
 31
0.0
  0
LINE
  5
189
330
1F
100
AcDbEntity
  8
0
  6
Continuous
 62
     7
100
AcDbLine
 10
80.36621247571807
 20
-36.4
 30
0.0
 11
79.36621247571807
 21
-37.9
 31
0.0
  0
LINE
  5
18A
330
1F
100
AcDbEntity
  8
0
  6
Continuous
 62
     7
100
AcDbLine
 10
80.36621247571807
 20
-39.4
 30
0.0
 11
79.36621247571807
 21
-37.9
 31
0.0
  0
LINE
  5
18B
330
1F
100
AcDbEntity
  8
0
  6
Continuous
 62
     7
100
AcDbLine
 10
86.36621247571807
 20
-39.4
 30
0.0
 11
86.36621247571807
 21
-37.9
 31
0.0
  0
LINE
  5
18C
330
1F
100
AcDbEntity
  8
0
  6
Continuous
 62
     7
100
AcDbLine
 10
86.36621247571807
 20
-37.9
 30
0.0
 11
79.36621247571807
 21
-37.9
 31
0.0
  0
LINE
  5
18D
330
1F
100
AcDbEntity
  8
0
  6
Continuous
 62
     7
100
AcDbLine
 10
86.36621247571807
 20
-36.4
 30
0.0
 11
80.36621247571807
 21
-36.4
 31
0.0
  0
LINE
  5
18E
330
1F
100
AcDbEntity
  8
0
  6
Continuous
 62
     7
100
AcDbLine
 10
86.36621247571807
 20
-34.9
 30
0.0
 11
79.36621247571807
 21
-34.9
 31
0.0
  0
LINE
  5
18F
330
1F
100
AcDbEntity
  8
0
  6
Continuous
 62
     7
100
AcDbLine
 10
86.36621247571807
 20
-27.4
 30
0.0
 11
86.36621247571807
 21
-28.9
 31
0.0
  0
LINE
  5
190
330
1F
100
AcDbEntity
  8
0
  6
Continuous
 62
     7
100
AcDbLine
 10
86.36621247571807
 20
-27.4
 30
0.0
 11
86.36621247571807
 21
-25.9
 31
0.0
  0
LINE
  5
191
330
1F
100
AcDbEntity
  8
0
  6
Continuous
 62
     7
100
AcDbLine
 10
86.36621247571807
 20
-36.4
 30
0.0
 11
86.36621247571807
 21
-34.9
 31
0.0
  0
LINE
  5
192
330
1F
100
AcDbEntity
  8
0
  6
Continuous
 62
     7
100
AcDbLine
 10
86.36621247571807
 20
-33.4
 30
0.0
 11
86.36621247571807
 21
-34.9
 31
0.0
  0
LINE
  5
193
330
1F
100
AcDbEntity
  8
0
  6
Continuous
 62
     7
100
AcDbLine
 10
86.36621247571807
 20
-30.4
 30
0.0
 11
86.36621247571807
 21
-31.9
 31
0.0
  0
LINE
  5
194
330
1F
100
AcDbEntity
  8
0
  6
Continuous
 62
     7
100
AcDbLine
 10
86.36621247571807
 20
-36.4
 30
0.0
 11
86.36621247571807
 21
-37.9
 31
0.0
  0
LINE
  5
195
330
1F
100
AcDbEntity
  8
0
  6
Continuous
 62
     7
100
AcDbLine
 10
86.36621247571807
 20
-30.4
 30
0.0
 11
86.36621247571807
 21
-28.9
 31
0.0
  0
LINE
  5
196
330
1F
100
AcDbEntity
  8
0
  6
Continuous
 62
     7
100
AcDbLine
 10
79.36621247571807
 20
-40.9
 30
0.0
 11
86.36621247571807
 21
-40.9
 31
0.0
  0
LINE
  5
197
330
1F
100
AcDbEntity
  8
0
  6
Continuous
 62
     7
100
AcDbLine
 10
86.36621247571807
 20
-25.9
 30
0.0
 11
79.36621247571807
 21
-25.9
 31
0.0
  0
LINE
  5
198
330
1F
100
AcDbEntity
  8
0
  6
Continuous
 62
     7
100
AcDbLine
 10
80.36621247571807
 20
-39.4
 30
0.0
 11
79.36621247571807
 21
-40.9
 31
0.0
  0
LINE
  5
199
330
1F
100
AcDbEntity
  8
0
  6
Continuous
 62
     7
100
AcDbLine
 10
86.36621247571807
 20
-39.4
 30
0.0
 11
86.36621247571807
 21
-40.9
 31
0.0
  0
LINE
  5
19A
330
1F
100
AcDbEntity
  8
0
  6
Continuous
 62
     7
100
AcDbLine
 10
86.36621247571807
 20
-39.4
 30
0.0
 11
80.36621247571807
 21
-39.4
 31
0.0
  0
LINE
  5
19B
330
1F
100
AcDbEntity
  8
0
  6
Continuous
 62
     7
100
AcDbLine
 10
80.36621247571807
 20
-27.4
 30
0.0
 11
79.36621247571807
 21
-28.9
 31
0.0
  0
LINE
  5
19C
330
1F
100
AcDbEntity
  8
0
  6
Continuous
 62
     7
100
AcDbLine
 10
86.36621247571807
 20
-33.4
 30
0.0
 11
80.36621247571807
 21
-33.4
 31
0.0
  0
LINE
  5
19D
330
1F
100
AcDbEntity
  8
0
  6
Continuous
 62
     7
100
AcDbLine
 10
86.36621247571807
 20
-27.4
 30
0.0
 11
80.36621247571807
 21
-27.4
 31
0.0
  0
LINE
  5
19E
330
1F
100
AcDbEntity
  8
0
  6
Continuous
 62
     7
100
AcDbLine
 10
86.36621247571807
 20
-33.4
 30
0.0
 11
86.36621247571807
 21
-31.9
 31
0.0
  0
LINE
  5
19F
330
1F
100
AcDbEntity
  8
0
  6
Continuous
 62
     7
100
AcDbLine
 10
86.36621247571807
 20
-30.4
 30
0.0
 11
80.36621247571807
 21
-30.4
 31
0.0
  0
LINE
  5
1A0
330
1F
100
AcDbEntity
  8
0
  6
Continuous
 62
     7
100
AcDbLine
 10
86.36621247571807
 20
-31.9
 30
0.0
 11
79.36621247571807
 21
-31.9
 31
0.0
  0
LINE
  5
1A1
330
1F
100
AcDbEntity
  8
0
  6
Continuous
 62
     7
100
AcDbLine
 10
80.36621247571807
 20
-30.4
 30
0.0
 11
79.36621247571807
 21
-31.9
 31
0.0
  0
LINE
  5
1A2
330
1F
100
AcDbEntity
  8
0
  6
Continuous
 62
     7
100
AcDbLine
 10
86.36621247571807
 20
-28.9
 30
0.0
 11
79.36621247571807
 21
-28.9
 31
0.0
  0
LINE
  5
1A3
330
1F
100
AcDbEntity
  8
0
  6
Continuous
 62
     7
100
AcDbLine
 10
80.36621247571807
 20
-33.4
 30
0.0
 11
79.36621247571807
 21
-31.9
 31
0.0
  0
LINE
  5
1A4
330
1F
100
AcDbEntity
  8
0
  6
Continuous
 62
     7
100
AcDbLine
 10
80.36621247571807
 20
-30.4
 30
0.0
 11
79.36621247571807
 21
-28.9
 31
0.0
  0
LINE
  5
1A5
330
1F
100
AcDbEntity
  8
0
  6
Continuous
 62
     7
100
AcDbLine
 10
79.36621247571807
 20
-52.9
 30
0.0
 11
86.36621247571807
 21
-52.9
 31
0.0
  0
LINE
  5
1A6
330
1F
100
AcDbEntity
  8
0
  6
Continuous
 62
     7
100
AcDbLine
 10
80.36621247571806
 20
-24.40000000000001
 30
0.0
 11
79.36621247571807
 21
-22.9
 31
0.0
  0
LINE
  5
1A7
330
1F
100
AcDbEntity
  8
0
  6
Continuous
 62
     7
100
AcDbLine
 10
79.36621247571807
 20
16.09999999999998
 30
0.0
 11
80.36621247571807
 21
15.09999999999935
 31
0.0
  0
LINE
  5
1A8
330
1F
100
AcDbEntity
  8
0
  6
Continuous
 62
     7
100
AcDbLine
 10
40.13295371358035
 20
-19.90000000000001
 30
0.0
 11
33.00565389897622
 21
25.1
 31
0.0
  0
LINE
  5
1A9
330
1F
100
AcDbEntity
  8
0
  6
Continuous
 62
     7
100
AcDbLine
 10
-47.91311221410656
 20
27.6
 30
0.0
 11
-47.41311221410656
 21
27.2
 31
0.0
  0
LINE
  5
1AA
330
1F
100
AcDbEntity
  8
0
  6
Continuous
 62
     7
100
AcDbLine
 10
-42.90480309401656
 20
6.21812887407066
 30
0.0
 11
-49.36704628641976
 21
9.94634610045701
 31
0.0
  0
LINE
  5
1AB
330
1F
100
AcDbEntity
  8
0
  6
Continuous
 62
     7
100
AcDbLine
 10
31.00565389897622
 20
27.1
 30
0.0
 11
26.04569783306434
 21
27.1
 31
0.0
  0
LINE
  5
1AC
330
1F
100
AcDbEntity
  8
0
  6
Continuous
 62
     7
100
AcDbLine
 10
26.04569783306434
 20
27.1
 30
0.0
 11
-65.86704628641965
 21
27.1
 31
0.0
  0
LINE
  5
1AD
330
1F
100
AcDbEntity
  8
0
  6
Continuous
 62
     7
100
AcDbLine
 10
-65.86704628641965
 20
27.1
 30
0.0
 11
-70.82700235233153
 21
27.1
 31
0.0
  0
LINE
  5
1AE
330
1F
100
AcDbEntity
  8
0
  6
Continuous
 62
     7
100
AcDbLine
 10
26.04569783306434
 20
27.1
 30
0.0
 11
26.04569783306434
 21
25.1
 31
0.0
  0
LINE
  5
1AF
330
1F
100
AcDbEntity
  8
0
  6
Continuous
 62
     7
100
AcDbLine
 10
-65.86704628641965
 20
27.1
 30
0.0
 11
-65.86704628641965
 21
25.1
 31
0.0
  0
LINE
  5
1B0
330
1F
100
AcDbEntity
  8
0
  6
Continuous
 62
     7
100
AcDbLine
 10
-65.78286115245075
 20
25.1
 30
0.0
 11
25.91839801846014
 21
25.1
 31
0.0
  0
LINE
  5
1B1
330
1F
100
AcDbEntity
  8
0
  6
Continuous
 62
     7
100
AcDbLine
 10
26.04569783306434
 20
25.1
 30
0.0
 11
25.91839801846014
 21
25.1
 31
0.0
  0
LINE
  5
1B2
330
1F
100
AcDbEntity
  8
0
  6
Continuous
 62
     7
100
AcDbLine
 10
-67.18286115245087
 20
16.10000000000003
 30
0.0
 11
27.34385798138104
 21
16.09999999999998
 31
0.0
  0
LINE
  5
1B3
330
1F
100
AcDbEntity
  8
0
  6
Continuous
 62
     7
100
AcDbLine
 10
31.15273734735331
 20
15.09999999999996
 30
0.0
 11
-70.98732995734986
 21
15.1
 31
0.0
  0
LINE
  5
1B4
330
1F
100
AcDbEntity
  8
0
  6
Continuous
 62
     7
100
AcDbLine
 10
-38.86704628641966
 20
11.1
 30
0.0
 11
-59.86704628641965
 21
11.1
 31
0.0
  0
LINE
  5
1B5
330
1F
100
AcDbEntity
  8
0
  6
Continuous
 62
     7
100
AcDbLine
 10
-47.53811221410656
 20
27.1
 30
0.0
 11
-47.41311221410656
 21
27.2
 31
0.0
  0
LINE
  5
1B6
330
1F
100
AcDbEntity
  8
0
  6
Continuous
 62
     7
100
AcDbLine
 10
-52.41311221410656
 20
27.2
 30
0.0
 11
-47.41311221410656
 21
27.2
 31
0.0
  0
LINE
  5
1B7
330
1F
100
AcDbEntity
  8
0
  6
Continuous
 62
     7
100
AcDbLine
 10
-52.28811221410656
 20
27.1
 30
0.0
 11
-52.41311221410656
 21
27.2
 31
0.0
  0
LINE
  5
1B8
330
1F
100
AcDbEntity
  8
0
  6
Continuous
 62
     7
100
AcDbLine
 10
7.58688778589342
 20
27.2
 30
0.0
 11
12.58688778589342
 21
27.2
 31
0.0
  0
LINE
  5
1B9
330
1F
100
AcDbEntity
  8
0
  6
Continuous
 62
     7
100
AcDbLine
 10
7.71188778589342
 20
27.1
 30
0.0
 11
7.58688778589342
 21
27.2
 31
0.0
  0
LINE
  5
1BA
330
1F
100
AcDbEntity
  8
0
  6
Continuous
 62
     7
100
AcDbLine
 10
12.46188778589342
 20
27.1
 30
0.0
 11
12.58688778589342
 21
27.2
 31
0.0
  0
LINE
  5
1BB
330
1F
100
AcDbEntity
  8
0
  6
Continuous
 62
     7
100
AcDbLine
 10
-51.91311221410656
 20
27.6
 30
0.0
 11
-47.91311221410656
 21
27.6
 31
0.0
  0
LINE
  5
1BC
330
1F
100
AcDbEntity
  8
0
  6
Continuous
 62
     7
100
AcDbLine
 10
-51.91311221410656
 20
27.6
 30
0.0
 11
-52.41311221410656
 21
27.2
 31
0.0
  0
LINE
  5
1BD
330
1F
100
AcDbEntity
  8
0
  6
Continuous
 62
     7
100
AcDbLine
 10
8.08688778589342
 20
27.6
 30
0.0
 11
12.08688778589342
 21
27.6
 31
0.0
  0
LINE
  5
1BE
330
1F
100
AcDbEntity
  8
0
  6
Continuous
 62
     7
100
AcDbLine
 10
8.08688778589342
 20
27.6
 30
0.0
 11
7.58688778589342
 21
27.2
 31
0.0
  0
LINE
  5
1BF
330
1F
100
AcDbEntity
  8
0
  6
Continuous
 62
     7
100
AcDbLine
 10
12.08688778589342
 20
27.6
 30
0.0
 11
12.58688778589342
 21
27.2
 31
0.0
  0
LINE
  5
1C0
330
1F
100
AcDbEntity
  8
0
  6
Continuous
 62
     7
100
AcDbLine
 10
-52.41311221410656
 20
28.0
 30
0.0
 11
-47.41311221410656
 21
28.0
 31
0.0
  0
LINE
  5
1C1
330
1F
100
AcDbEntity
  8
0
  6
Continuous
 62
     7
100
AcDbLine
 10
-51.91311221410656
 20
27.6
 30
0.0
 11
-52.41311221410656
 21
28.0
 31
0.0
  0
LINE
  5
1C2
330
1F
100
AcDbEntity
  8
0
  6
Continuous
 62
     7
100
AcDbLine
 10
-47.91311221410656
 20
27.6
 30
0.0
 11
-47.41311221410656
 21
28.0
 31
0.0
  0
LINE
  5
1C3
330
1F
100
AcDbEntity
  8
0
  6
Continuous
 62
     7
100
AcDbLine
 10
12.08688778589342
 20
27.6
 30
0.0
 11
12.58688778589342
 21
28.0
 31
0.0
  0
LINE
  5
1C4
330
1F
100
AcDbEntity
  8
0
  6
Continuous
 62
     7
100
AcDbLine
 10
7.58688778589342
 20
28.0
 30
0.0
 11
12.58688778589342
 21
28.0
 31
0.0
  0
LINE
  5
1C5
330
1F
100
AcDbEntity
  8
0
  6
Continuous
 62
     7
100
AcDbLine
 10
8.08688778589342
 20
27.6
 30
0.0
 11
7.58688778589342
 21
28.0
 31
0.0
  0
LINE
  5
1C6
330
1F
100
AcDbEntity
  8
0
  6
Continuous
 62
     7
100
AcDbLine
 10
-51.91311221410656
 20
28.4
 30
0.0
 11
-47.91311221410656
 21
28.4
 31
0.0
  0
LINE
  5
1C7
330
1F
100
AcDbEntity
  8
0
  6
Continuous
 62
     7
100
AcDbLine
 10
-51.91311221410656
 20
28.4
 30
0.0
 11
-52.41311221410656
 21
28.0
 31
0.0
  0
LINE
  5
1C8
330
1F
100
AcDbEntity
  8
0
  6
Continuous
 62
     7
100
AcDbLine
 10
-47.91311221410656
 20
28.4
 30
0.0
 11
-47.41311221410656
 21
28.0
 31
0.0
  0
LINE
  5
1C9
330
1F
100
AcDbEntity
  8
0
  6
Continuous
 62
     7
100
AcDbLine
 10
8.08688778589342
 20
28.4
 30
0.0
 11
12.08688778589342
 21
28.4
 31
0.0
  0
LINE
  5
1CA
330
1F
100
AcDbEntity
  8
0
  6
Continuous
 62
     7
100
AcDbLine
 10
8.08688778589342
 20
28.4
 30
0.0
 11
7.58688778589342
 21
28.0
 31
0.0
  0
LINE
  5
1CB
330
1F
100
AcDbEntity
  8
0
  6
Continuous
 62
     7
100
AcDbLine
 10
12.08688778589342
 20
28.4
 30
0.0
 11
12.58688778589342
 21
28.0
 31
0.0
  0
LINE
  5
1CC
330
1F
100
AcDbEntity
  8
0
  6
Continuous
 62
     7
100
AcDbLine
 10
-52.41311221410656
 20
28.8
 30
0.0
 11
-47.41311221410656
 21
28.8
 31
0.0
  0
LINE
  5
1CD
330
1F
100
AcDbEntity
  8
0
  6
Continuous
 62
     7
100
AcDbLine
 10
-51.91311221410656
 20
28.4
 30
0.0
 11
-52.41311221410656
 21
28.8
 31
0.0
  0
LINE
  5
1CE
330
1F
100
AcDbEntity
  8
0
  6
Continuous
 62
     7
100
AcDbLine
 10
12.08688778589342
 20
28.4
 30
0.0
 11
12.58688778589342
 21
28.8
 31
0.0
  0
LINE
  5
1CF
330
1F
100
AcDbEntity
  8
0
  6
Continuous
 62
     7
100
AcDbLine
 10
7.58688778589342
 20
28.8
 30
0.0
 11
12.58688778589342
 21
28.8
 31
0.0
  0
LINE
  5
1D0
330
1F
100
AcDbEntity
  8
0
  6
Continuous
 62
     7
100
AcDbLine
 10
8.08688778589342
 20
28.4
 30
0.0
 11
7.58688778589342
 21
28.8
 31
0.0
  0
LINE
  5
1D1
330
1F
100
AcDbEntity
  8
0
  6
Continuous
 62
     7
100
AcDbLine
 10
-47.91311221410656
 20
28.4
 30
0.0
 11
-47.41311221410656
 21
28.8
 31
0.0
  0
LINE
  5
1D2
330
1F
100
AcDbEntity
  8
0
  6
Continuous
 62
     7
100
AcDbLine
 10
-51.91311221410656
 20
29.2
 30
0.0
 11
-47.91311221410656
 21
29.2
 31
0.0
  0
LINE
  5
1D3
330
1F
100
AcDbEntity
  8
0
  6
Continuous
 62
     7
100
AcDbLine
 10
-51.91311221410656
 20
29.2
 30
0.0
 11
-52.41311221410656
 21
28.8
 31
0.0
  0
LINE
  5
1D4
330
1F
100
AcDbEntity
  8
0
  6
Continuous
 62
     7
100
AcDbLine
 10
-47.91311221410656
 20
29.2
 30
0.0
 11
-47.41311221410656
 21
28.8
 31
0.0
  0
LINE
  5
1D5
330
1F
100
AcDbEntity
  8
0
  6
Continuous
 62
     7
100
AcDbLine
 10
12.08688778589342
 20
29.2
 30
0.0
 11
12.58688778589342
 21
28.8
 31
0.0
  0
LINE
  5
1D6
330
1F
100
AcDbEntity
  8
0
  6
Continuous
 62
     7
100
AcDbLine
 10
8.08688778589342
 20
29.2
 30
0.0
 11
12.08688778589342
 21
29.2
 31
0.0
  0
LINE
  5
1D7
330
1F
100
AcDbEntity
  8
0
  6
Continuous
 62
     7
100
AcDbLine
 10
8.08688778589342
 20
29.2
 30
0.0
 11
7.58688778589342
 21
28.8
 31
0.0
  0
LINE
  5
1D8
330
1F
100
AcDbEntity
  8
0
  6
Continuous
 62
     7
100
AcDbLine
 10
12.08688778589342
 20
29.2
 30
0.0
 11
12.58688778589342
 21
29.6
 31
0.0
  0
LINE
  5
1D9
330
1F
100
AcDbEntity
  8
0
  6
Continuous
 62
     7
100
AcDbLine
 10
8.08688778589342
 20
29.2
 30
0.0
 11
7.58688778589342
 21
29.6
 31
0.0
  0
LINE
  5
1DA
330
1F
100
AcDbEntity
  8
0
  6
Continuous
 62
     7
100
AcDbLine
 10
-47.91311221410656
 20
29.2
 30
0.0
 11
-47.41311221410656
 21
29.6
 31
0.0
  0
LINE
  5
1DB
330
1F
100
AcDbEntity
  8
0
  6
Continuous
 62
     7
100
AcDbLine
 10
-47.91311221410656
 20
30.0
 30
0.0
 11
-47.41311221410656
 21
29.6
 31
0.0
  0
LINE
  5
1DC
330
1F
100
AcDbEntity
  8
0
  6
Continuous
 62
     7
100
AcDbLine
 10
-51.91311221410656
 20
30.0
 30
0.0
 11
-47.91311221410656
 21
30.0
 31
0.0
  0
LINE
  5
1DD
330
1F
100
AcDbEntity
  8
0
  6
Continuous
 62
     7
100
AcDbLine
 10
-47.91311221410656
 20
30.0
 30
0.0
 11
-47.78811221410656
 21
30.1
 31
0.0
  0
LINE
  5
1DE
330
1F
100
AcDbEntity
  8
0
  6
Continuous
 62
     7
100
AcDbLine
 10
-51.91311221410656
 20
30.0
 30
0.0
 11
-52.41311221410656
 21
29.6
 31
0.0
  0
LINE
  5
1DF
330
1F
100
AcDbEntity
  8
0
  6
Continuous
 62
     7
100
AcDbLine
 10
-51.91311221410656
 20
29.2
 30
0.0
 11
-52.41311221410656
 21
29.6
 31
0.0
  0
LINE
  5
1E0
330
1F
100
AcDbEntity
  8
0
  6
Continuous
 62
     7
100
AcDbLine
 10
-51.91311221410656
 20
30.0
 30
0.0
 11
-52.03811221410656
 21
30.1
 31
0.0
  0
LINE
  5
1E1
330
1F
100
AcDbEntity
  8
0
  6
Continuous
 62
     7
100
AcDbLine
 10
-52.41311221410656
 20
29.6
 30
0.0
 11
-47.41311221410656
 21
29.6
 31
0.0
  0
LINE
  5
1E2
330
1F
100
AcDbEntity
  8
0
  6
Continuous
 62
     7
100
AcDbLine
 10
15.08688778589342
 20
46.1
 30
0.0
 11
15.08688778589342
 21
47.236038969321
 31
0.0
  0
LINE
  5
1E3
330
1F
100
AcDbEntity
  8
0
  6
Continuous
 62
     7
100
AcDbLine
 10
-54.91311221410656
 20
45.1
 30
0.0
 11
15.08688778589342
 21
45.1
 31
0.0
  0
LINE
  5
1E4
330
1F
100
AcDbEntity
  8
0
  6
Continuous
 62
     7
100
AcDbLine
 10
5.83688778589342
 20
35.1
 30
0.0
 11
5.83688778589342
 21
40.1
 31
0.0
  0
LINE
  5
1E5
330
1F
100
AcDbEntity
  8
0
  6
Continuous
 62
     7
100
AcDbLine
 10
14.33688778589342
 20
35.1
 30
0.0
 11
14.33688778589342
 21
40.1
 31
0.0
  0
LINE
  5
1E6
330
1F
100
AcDbEntity
  8
0
  6
Continuous
 62
     7
100
AcDbLine
 10
15.08688778589342
 20
45.1
 30
0.0
 11
15.08688778589342
 21
46.1
 31
0.0
  0
LINE
  5
1E7
330
1F
100
AcDbEntity
  8
0
  6
Continuous
 62
     7
100
AcDbLine
 10
14.58688778589342
 20
40.1
 30
0.0
 11
14.33688778589342
 21
40.1
 31
0.0
  0
LINE
  5
1E8
330
1F
100
AcDbEntity
  8
0
  6
Continuous
 62
     7
100
AcDbLine
 10
14.33688778589342
 20
40.1
 30
0.0
 11
5.83688778589342
 21
40.1
 31
0.0
  0
LINE
  5
1E9
330
1F
100
AcDbEntity
  8
0
  6
Continuous
 62
     7
100
AcDbLine
 10
-54.91311221410656
 20
46.1
 30
0.0
 11
15.08688778589342
 21
46.1
 31
0.0
  0
LINE
  5
1EA
330
1F
100
AcDbEntity
  8
0
  6
Continuous
 62
     7
100
AcDbLine
 10
-54.91311221410656
 20
47.236038969321
 30
0.0
 11
15.08688778589342
 21
47.236038969321
 31
0.0
  0
LINE
  5
1EB
330
1F
100
AcDbEntity
  8
0
  6
Continuous
 62
     7
100
AcDbLine
 10
-54.91311221410656
 20
47.236038969321
 30
0.0
 11
-54.91311221410656
 21
46.1
 31
0.0
  0
LINE
  5
1EC
330
1F
100
AcDbEntity
  8
0
  6
Continuous
 62
     7
100
AcDbLine
 10
-56.54435632014236
 20
45.1
 30
0.0
 11
-54.91311221410656
 21
45.1
 31
0.0
  0
LINE
  5
1ED
330
1F
100
AcDbEntity
  8
0
  6
Continuous
 62
     7
100
AcDbLine
 10
-54.91311221410656
 20
46.1
 30
0.0
 11
-54.91311221410656
 21
45.1
 31
0.0
  0
LINE
  5
1EE
330
1F
100
AcDbEntity
  8
0
  6
Continuous
 62
     7
100
AcDbLine
 10
15.08688778589342
 20
45.1
 30
0.0
 11
16.71813189192923
 21
45.1
 31
0.0
  0
LINE
  5
1EF
330
1F
100
AcDbEntity
  8
0
  6
Continuous
 62
     7
100
AcDbLine
 10
-54.91311221410656
 20
48.2966991411009
 30
0.0
 11
-54.91311221410656
 21
47.236038969321
 31
0.0
  0
LINE
  5
1F0
330
1F
100
AcDbEntity
  8
0
  6
Continuous
 62
     7
100
AcDbLine
 10
15.08688778589342
 20
47.236038969321
 30
0.0
 11
15.08688778589342
 21
48.2966991411009
 31
0.0
  0
LINE
  5
1F1
330
1F
100
AcDbEntity
  8
0
  6
Continuous
 62
     7
100
AcDbLine
 10
15.08688778589342
 20
48.2966991411009
 30
0.0
 11
-54.91311221410656
 21
48.2966991411009
 31
0.0
  0
LINE
  5
1F2
330
1F
100
AcDbEntity
  8
0
  6
Continuous
 62
     7
100
AcDbLine
 10
15.08688778589342
 20
53.9033008588991
 30
0.0
 11
-54.91311221410656
 21
53.9033008588991
 31
0.0
  0
LINE
  5
1F3
330
1F
100
AcDbEntity
  8
0
  6
Continuous
 62
     7
100
AcDbLine
 10
15.08688778589342
 20
53.2213203435597
 30
0.0
 11
-54.91311221410656
 21
53.2213203435597
 31
0.0
  0
LINE
  5
1F4
330
1F
100
AcDbEntity
  8
0
  6
Continuous
 62
     7
100
AcDbLine
 10
15.08688778589342
 20
48.9786796564404
 30
0.0
 11
-54.91311221410656
 21
48.9786796564404
 31
0.0
  0
LINE
  5
1F5
330
1F
100
AcDbEntity
  8
0
  6
Continuous
 62
     7
100
AcDbLine
 10
-60.75841167572736
 20
53.1
 30
0.0
 11
-63.06781275248585
 21
53.1
 31
0.0
  0
LINE
  5
1F6
330
1F
100
AcDbEntity
  8
0
  6
Continuous
 62
     7
100
AcDbLine
 10
-63.06781275248585
 20
53.1
 30
0.0
 11
-64.22251329086505
 21
51.1
 31
0.0
  0
LINE
  5
1F7
330
1F
100
AcDbEntity
  8
0
  6
Continuous
 62
     7
100
AcDbLine
 10
-59.60371113734806
 20
51.1
 30
0.0
 11
-60.75841167572736
 21
53.1
 31
0.0
  0
LINE
  5
1F8
330
1F
100
AcDbEntity
  8
0
  6
Continuous
 62
     7
100
AcDbLine
 10
-60.75841167572736
 20
49.1
 30
0.0
 11
-59.60371113734806
 21
51.1
 31
0.0
  0
LINE
  5
1F9
330
1F
100
AcDbEntity
  8
0
  6
Continuous
 62
     7
100
AcDbLine
 10
-54.91311221410656
 20
48.2966991411009
 30
0.0
 11
-54.91311221410656
 21
48.9786796564404
 31
0.0
  0
LINE
  5
1FA
330
1F
100
AcDbEntity
  8
0
  6
Continuous
 62
     7
100
AcDbLine
 10
-63.06781275248585
 20
49.1
 30
0.0
 11
-60.75841167572736
 21
49.1
 31
0.0
  0
LINE
  5
1FB
330
1F
100
AcDbEntity
  8
0
  6
Continuous
 62
     7
100
AcDbLine
 10
-64.22251329086505
 20
51.1
 30
0.0
 11
-63.06781275248585
 21
49.1
 31
0.0
  0
LINE
  5
1FC
330
1F
100
AcDbEntity
  8
0
  6
Continuous
 62
     7
100
AcDbLine
 10
23.24158832427264
 20
49.1
 30
0.0
 11
24.39628886265194
 21
51.1
 31
0.0
  0
LINE
  5
1FD
330
1F
100
AcDbEntity
  8
0
  6
Continuous
 62
     7
100
AcDbLine
 10
15.08688778589342
 20
48.9786796564404
 30
0.0
 11
15.08688778589342
 21
48.2966991411009
 31
0.0
  0
LINE
  5
1FE
330
1F
100
AcDbEntity
  8
0
  6
Continuous
 62
     7
100
AcDbLine
 10
19.77748670913493
 20
51.1
 30
0.0
 11
20.93218724751417
 21
49.1
 31
0.0
  0
LINE
  5
1FF
330
1F
100
AcDbEntity
  8
0
  6
Continuous
 62
     7
100
AcDbLine
 10
20.93218724751417
 20
49.1
 30
0.0
 11
23.24158832427264
 21
49.1
 31
0.0
  0
LINE
  5
200
330
1F
100
AcDbEntity
  8
0
  6
Continuous
 62
     7
100
AcDbLine
 10
-54.91311221410656
 20
48.9786796564404
 30
0.0
 11
-54.91311221410656
 21
53.2213203435597
 31
0.0
  0
LINE
  5
201
330
1F
100
AcDbEntity
  8
0
  6
Continuous
 62
     7
100
AcDbLine
 10
24.39628886265194
 20
51.1
 30
0.0
 11
23.24158832427264
 21
53.1
 31
0.0
  0
LINE
  5
202
330
1F
100
AcDbEntity
  8
0
  6
Continuous
 62
     7
100
AcDbLine
 10
15.08688778589342
 20
53.2213203435597
 30
0.0
 11
15.08688778589342
 21
48.9786796564404
 31
0.0
  0
LINE
  5
203
330
1F
100
AcDbEntity
  8
0
  6
Continuous
 62
     7
100
AcDbLine
 10
20.93218724751417
 20
53.1
 30
0.0
 11
19.77748670913493
 21
51.1
 31
0.0
  0
LINE
  5
204
330
1F
100
AcDbEntity
  8
0
  6
Continuous
 62
     7
100
AcDbLine
 10
23.24158832427264
 20
53.1
 30
0.0
 11
20.93218724751417
 21
53.1
 31
0.0
  0
LINE
  5
205
330
1F
100
AcDbEntity
  8
0
  6
Continuous
 62
     7
100
AcDbLine
 10
-67.91311221410656
 20
54.6
 30
0.0
 11
-67.91311221410656
 21
54.320105116796
 31
0.0
  0
LINE
  5
206
330
1F
100
AcDbEntity
  8
0
  6
Continuous
 62
     7
100
AcDbLine
 10
-54.91311221410656
 20
54.9639610306789
 30
0.0
 11
-54.91311221410656
 21
53.9033008588991
 31
0.0
  0
LINE
  5
207
330
1F
100
AcDbEntity
  8
0
  6
Continuous
 62
     7
100
AcDbLine
 10
-54.91311221410656
 20
53.2213203435597
 30
0.0
 11
-54.91311221410656
 21
53.9033008588991
 31
0.0
  0
LINE
  5
208
330
1F
100
AcDbEntity
  8
0
  6
Continuous
 62
     7
100
AcDbLine
 10
15.08688778589342
 20
53.9033008588991
 30
0.0
 11
15.08688778589342
 21
53.2213203435597
 31
0.0
  0
LINE
  5
209
330
1F
100
AcDbEntity
  8
0
  6
Continuous
 62
     7
100
AcDbLine
 10
-54.91311221410656
 20
54.9639610306789
 30
0.0
 11
15.08688778589342
 21
54.9639610306789
 31
0.0
  0
LINE
  5
20A
330
1F
100
AcDbEntity
  8
0
  6
Continuous
 62
     7
100
AcDbLine
 10
15.08688778589342
 20
53.9033008588991
 30
0.0
 11
15.08688778589342
 21
54.9639610306789
 31
0.0
  0
LINE
  5
20B
330
1F
100
AcDbEntity
  8
0
  6
Continuous
 62
     7
100
AcDbLine
 10
-54.91311221410656
 20
56.1
 30
0.0
 11
-54.91311221410656
 21
54.9639610306789
 31
0.0
  0
LINE
  5
20C
330
1F
100
AcDbEntity
  8
0
  6
Continuous
 62
     7
100
AcDbLine
 10
15.08688778589342
 20
54.9639610306789
 30
0.0
 11
15.08688778589342
 21
56.1
 31
0.0
  0
LINE
  5
20D
330
1F
100
AcDbEntity
  8
0
  6
Continuous
 62
     7
100
AcDbLine
 10
-54.91311221410656
 20
56.1
 30
0.0
 11
15.08688778589342
 21
56.1
 31
0.0
  0
LINE
  5
20E
330
1F
100
AcDbEntity
  8
0
  6
Continuous
 62
     7
100
AcDbLine
 10
-49.36704628641976
 20
1.753653899543
 30
0.0
 11
-42.90480309401656
 21
5.48187112592937
 31
0.0
  0
LINE
  5
20F
330
1F
100
AcDbEntity
  8
0
  6
Continuous
 62
     7
100
AcDbLine
 10
-55.82928947882266
 20
5.48187112592935
 30
0.0
 11
-49.36704628641976
 21
1.753653899543
 31
0.0
  0
LINE
  5
210
330
1F
100
AcDbEntity
  8
0
  6
Continuous
 62
     7
100
AcDbLine
 10
-49.36704628641976
 20
9.94634610045701
 30
0.0
 11
-55.82928947882256
 21
6.21812887407066
 31
0.0
  0
LINE
  5
211
330
1F
100
AcDbEntity
  8
0
  6
Continuous
 62
     7
100
AcDbLine
 10
-49.36704628641976
 20
2.1
 30
0.0
 11
-55.67937274277576
 21
5.74172680174392
 31
0.0
  0
LINE
  5
212
330
1F
100
AcDbEntity
  8
0
  6
Continuous
 62
     7
100
AcDbLine
 10
-55.67937274277576
 20
5.95827319825609
 30
0.0
 11
-49.36704628641976
 21
9.6
 31
0.0
  0
LINE
  5
213
330
1F
100
AcDbEntity
  8
0
  6
Continuous
 62
     7
100
AcDbLine
 10
-49.36704628641976
 20
6.85000000000001
 30
0.0
 11
-50.24622102370206
 21
8.37277531370419
 31
0.0
  0
LINE
  5
214
330
1F
100
AcDbEntity
  8
0
  6
Continuous
 62
     7
100
AcDbLine
 10
-49.49211567304726
 20
3.2400558917712
 30
0.0
 11
-51.11704628641965
 21
4.1775158610245
 31
0.0
  0
LINE
  5
215
330
1F
100
AcDbEntity
  8
0
  6
Continuous
 62
     7
100
AcDbLine
 10
-51.36690751316446
 20
3.7444230680002
 30
0.0
 11
-49.74197689979206
 21
2.8069630987469
 31
0.0
  0
LINE
  5
216
330
1F
100
AcDbEntity
  8
0
  6
Continuous
 62
     7
100
AcDbLine
 10
-67.18286115245087
 20
16.10000000000003
 30
0.0
 11
-65.78286115245075
 21
25.1
 31
0.0
  0
LINE
  5
217
330
1F
100
AcDbEntity
  8
0
  6
Continuous
 62
     7
100
AcDbLine
 10
-72.86704628641965
 20
-19.9
 30
0.0
 11
-72.78286115245075
 21
-19.9
 31
0.0
  0
LINE
  5
218
330
1F
100
AcDbEntity
  8
0
  6
Continuous
 62
     7
100
AcDbLine
 10
-65.78286115245075
 20
25.1
 30
0.0
 11
-72.86704628641962
 21
25.09999999999999
 31
0.0
  0
LINE
  5
219
330
1F
100
AcDbEntity
  8
0
  6
Continuous
 62
     7
100
AcDbLine
 10
-72.86704628641965
 20
-24.4
 30
0.0
 11
-72.86704628641965
 21
-22.9
 31
0.0
  0
LINE
  5
21A
330
1F
100
AcDbEntity
  8
0
  6
Continuous
 62
     7
100
AcDbLine
 10
-72.86704628641965
 20
-28.9
 30
0.0
 11
-72.86704628641965
 21
-27.4
 31
0.0
  0
LINE
  5
21B
330
1F
100
AcDbEntity
  8
0
  6
Continuous
 62
     7
100
AcDbLine
 10
-72.86704628641965
 20
-25.9
 30
0.0
 11
-72.86704628641965
 21
-24.4
 31
0.0
  0
LINE
  5
21C
330
1F
100
AcDbEntity
  8
0
  6
Continuous
 62
     7
100
AcDbLine
 10
-72.86704628641965
 20
-27.4
 30
0.0
 11
-72.86704628641965
 21
-25.9
 31
0.0
  0
LINE
  5
21D
330
1F
100
AcDbEntity
  8
0
  6
Continuous
 62
     7
100
AcDbLine
 10
-72.86704628641965
 20
-39.4
 30
0.0
 11
-72.86704628641965
 21
-37.9
 31
0.0
  0
LINE
  5
21E
330
1F
100
AcDbEntity
  8
0
  6
Continuous
 62
     7
100
AcDbLine
 10
-72.86704628641965
 20
-37.9
 30
0.0
 11
-72.86704628641965
 21
-36.4
 31
0.0
  0
LINE
  5
21F
330
1F
100
AcDbEntity
  8
0
  6
Continuous
 62
     7
100
AcDbLine
 10
-72.86704628641965
 20
-36.4
 30
0.0
 11
-72.86704628641965
 21
-34.9
 31
0.0
  0
LINE
  5
220
330
1F
100
AcDbEntity
  8
0
  6
Continuous
 62
     7
100
AcDbLine
 10
-61.86704628641965
 20
9.1
 30
0.0
 11
-61.86704628641965
 21
-1.9
 31
0.0
  0
LINE
  5
221
330
1F
100
AcDbEntity
  8
0
  6
Continuous
 62
     7
100
AcDbLine
 10
-72.86704628641965
 20
-30.4
 30
0.0
 11
-72.86704628641965
 21
-28.9
 31
0.0
  0
LINE
  5
222
330
1F
100
AcDbEntity
  8
0
  6
Continuous
 62
     7
100
AcDbLine
 10
-72.86704628641965
 20
-31.9
 30
0.0
 11
-72.86704628641965
 21
-30.4
 31
0.0
  0
LINE
  5
223
330
1F
100
AcDbEntity
  8
0
  6
Continuous
 62
     7
100
AcDbLine
 10
-72.86704628641965
 20
-33.4
 30
0.0
 11
-72.86704628641965
 21
-31.9
 31
0.0
  0
LINE
  5
224
330
1F
100
AcDbEntity
  8
0
  6
Continuous
 62
     7
100
AcDbLine
 10
-72.86704628641965
 20
-34.9
 30
0.0
 11
-72.86704628641965
 21
-33.4
 31
0.0
  0
LINE
  5
225
330
1F
100
AcDbEntity
  8
0
  6
Continuous
 62
     7
100
AcDbLine
 10
-72.86704628641965
 20
-40.9
 30
0.0
 11
-72.86704628641965
 21
-39.4
 31
0.0
  0
LINE
  5
226
330
1F
100
AcDbEntity
  8
0
  6
Continuous
 62
     7
100
AcDbLine
 10
-51.61704628641965
 20
7.66687512012558
 30
0.0
 11
-51.61704628641965
 21
4.1775158610245
 31
0.0
  0
LINE
  5
227
330
1F
100
AcDbEntity
  8
0
  6
Continuous
 62
     7
100
AcDbLine
 10
-51.11704628641965
 20
4.1775158610245
 30
0.0
 11
-51.11704628641965
 21
7.66687512012558
 31
0.0
  0
LINE
  5
228
330
1F
100
AcDbEntity
  8
0
  6
Continuous
 62
     7
100
AcDbLine
 10
-52.11704628641965
 20
4.6100479567975
 30
0.0
 11
-52.11704628641965
 21
7.08995204320251
 31
0.0
  0
LINE
  5
229
330
1F
100
AcDbEntity
  8
0
  6
Continuous
 62
     7
100
AcDbLine
 10
-52.61704628641965
 20
7.08995204320251
 30
0.0
 11
-52.61704628641965
 21
4.6100479567975
 31
0.0
  0
LINE
  5
22A
330
1F
100
AcDbEntity
  8
0
  6
Continuous
 62
     7
100
AcDbLine
 10
-50.11704628641976
 20
4.6106888044747
 30
0.0
 11
-50.11704628641976
 21
7.14903810567666
 31
0.0
  0
LINE
  5
22B
330
1F
100
AcDbEntity
  8
0
  6
Continuous
 62
     7
100
AcDbLine
 10
-50.61704628641976
 20
8.27341298402595
 30
0.0
 11
-50.61704628641976
 21
4.6106888044747
 31
0.0
  0
LINE
  5
22C
330
1F
100
AcDbEntity
  8
0
  6
Continuous
 62
     7
100
AcDbLine
 10
-50.11704628641976
 20
7.14903810567666
 30
0.0
 11
-49.47529946189275
 21
6.0375
 31
0.0
  0
LINE
  5
22D
330
1F
100
AcDbEntity
  8
0
  6
Continuous
 62
     7
100
AcDbLine
 10
-48.61704628641976
 20
7.14903810567667
 30
0.0
 11
-48.61704628641976
 21
3.4562018029513
 31
0.0
  0
LINE
  5
22E
330
1F
100
AcDbEntity
  8
0
  6
Continuous
 62
     7
100
AcDbLine
 10
-49.25879311094656
 20
6.0375
 30
0.0
 11
-48.61704628641976
 21
7.14903810567667
 31
0.0
  0
LINE
  5
22F
330
1F
100
AcDbEntity
  8
0
  6
Continuous
 62
     7
100
AcDbLine
 10
-48.11704628641976
 20
3.4562018029513
 30
0.0
 11
-48.11704628641956
 21
8.27341298402595
 31
0.0
  0
LINE
  5
230
330
1F
100
AcDbEntity
  8
0
  6
Continuous
 62
     7
100
AcDbLine
 10
-48.48787154913725
 20
8.37277531370419
 30
0.0
 11
-49.36704628641976
 21
6.85000000000001
 31
0.0
  0
LINE
  5
231
330
1F
100
AcDbEntity
  8
0
  6
Continuous
 62
     7
100
AcDbLine
 10
-47.11704628641976
 20
7.23402260051398
 30
0.0
 11
-46.49197689979206
 21
6.87340564669036
 31
0.0
  0
LINE
  5
232
330
1F
100
AcDbEntity
  8
0
  6
Continuous
 62
     7
100
AcDbLine
 10
-47.11704628641976
 20
6.1
 30
0.0
 11
-47.11704628641976
 21
7.23402260051398
 31
0.0
  0
LINE
  5
233
330
1F
100
AcDbEntity
  8
0
  6
Continuous
 62
     7
100
AcDbLine
 10
-47.61704628641976
 20
7.66687512012558
 30
0.0
 11
-47.61704628641976
 21
4.0331248798744
 31
0.0
  0
LINE
  5
234
330
1F
100
AcDbEntity
  8
0
  6
Continuous
 62
     7
100
AcDbLine
 10
-47.24211567304726
 20
3.8165784833623
 30
0.0
 11
-46.24211567304726
 21
4.3935015602853
 31
0.0
  0
LINE
  5
235
330
1F
100
AcDbEntity
  8
0
  6
Continuous
 62
     7
100
AcDbLine
 10
-46.49197689979206
 20
4.8265943533096
 30
0.0
 11
-47.11704628641976
 21
4.465977399486
 31
0.0
  0
LINE
  5
236
330
1F
100
AcDbEntity
  8
0
  6
Continuous
 62
     7
100
AcDbLine
 10
-47.11704628641976
 20
4.465977399486
 30
0.0
 11
-47.11704628641976
 21
5.6
 31
0.0
  0
LINE
  5
237
330
1F
100
AcDbEntity
  8
0
  6
Continuous
 62
     7
100
AcDbLine
 10
-47.11704628641976
 20
5.6
 30
0.0
 11
-46.36704628641976
 21
5.6
 31
0.0
  0
LINE
  5
238
330
1F
100
AcDbEntity
  8
0
  6
Continuous
 62
     7
100
AcDbLine
 10
-46.36704628641976
 20
6.1
 30
0.0
 11
-47.11704628641976
 21
6.1
 31
0.0
  0
LINE
  5
239
330
1F
100
AcDbEntity
  8
0
  6
Continuous
 62
     7
100
AcDbLine
 10
-46.24211567304726
 20
7.30649843971465
 30
0.0
 11
-47.24211567304726
 21
7.88342151663772
 31
0.0
  0
LINE
  5
23A
330
1F
100
AcDbEntity
  8
0
  6
Continuous
 62
     7
100
AcDbLine
 10
-49.36704628641976
 20
9.6
 30
0.0
 11
-43.05471983006356
 21
5.95827319825609
 31
0.0
  0
LINE
  5
23B
330
1F
100
AcDbEntity
  8
0
  6
Continuous
 62
     7
100
AcDbLine
 10
-43.05471983006356
 20
5.74172680174392
 30
0.0
 11
-49.36704628641976
 21
2.1
 31
0.0
  0
LINE
  5
23C
330
1F
100
AcDbEntity
  8
0
  6
Continuous
 62
     7
100
AcDbLine
 10
-69.91161765677685
 20
30.1
 30
0.0
 11
-62.91161765677686
 21
30.1
 31
0.0
  0
LINE
  5
23D
330
1F
100
AcDbEntity
  8
0
  6
Continuous
 62
     7
100
AcDbLine
 10
-55.41311221410656
 20
35.1
 30
0.0
 11
-54.16311221410656
 21
35.1
 31
0.0
  0
LINE
  5
23E
330
1F
100
AcDbEntity
  8
0
  6
Continuous
 62
     7
100
AcDbLine
 10
-54.16311221410656
 20
40.1
 30
0.0
 11
-45.66311221410656
 21
40.1
 31
0.0
  0
LINE
  5
23F
330
1F
100
AcDbEntity
  8
0
  6
Continuous
 62
     7
100
AcDbLine
 10
-62.91161765677686
 20
40.1
 30
0.0
 11
-55.41311221410656
 21
40.1
 31
0.0
  0
LINE
  5
240
330
1F
100
AcDbEntity
  8
0
  6
Continuous
 62
     7
100
AcDbLine
 10
-54.16311221410656
 20
40.1
 30
0.0
 11
-54.41311221410656
 21
40.1
 31
0.0
  0
LINE
  5
241
330
1F
100
AcDbEntity
  8
0
  6
Continuous
 62
     7
100
AcDbLine
 10
-54.41311221410656
 20
40.1
 30
0.0
 11
-55.41311221410656
 21
40.1
 31
0.0
  0
LINE
  5
242
330
1F
100
AcDbEntity
  8
0
  6
Continuous
 62
     7
100
AcDbLine
 10
-44.41311221410656
 20
40.1
 30
0.0
 11
-44.41311221410656
 21
35.1
 31
0.0
  0
LINE
  5
243
330
1F
100
AcDbEntity
  8
0
  6
Continuous
 62
     7
100
AcDbLine
 10
-45.66311221410656
 20
35.1
 30
0.0
 11
-45.66311221410656
 21
40.1
 31
0.0
  0
LINE
  5
244
330
1F
100
AcDbEntity
  8
0
  6
Continuous
 62
     7
100
AcDbLine
 10
-45.66311221410656
 20
35.1
 30
0.0
 11
-44.41311221410656
 21
35.1
 31
0.0
  0
LINE
  5
245
330
1F
100
AcDbEntity
  8
0
  6
Continuous
 62
     7
100
AcDbLine
 10
-44.41311221410656
 20
40.1
 30
0.0
 11
-45.41311221410656
 21
40.1
 31
0.0
  0
LINE
  5
246
330
1F
100
AcDbEntity
  8
0
  6
Continuous
 62
     7
100
AcDbLine
 10
-45.41311221410656
 20
40.1
 30
0.0
 11
-45.41311221410656
 21
35.1
 31
0.0
  0
LINE
  5
247
330
1F
100
AcDbEntity
  8
0
  6
Continuous
 62
     7
100
AcDbLine
 10
-45.41311221410656
 20
40.1
 30
0.0
 11
-45.66311221410656
 21
40.1
 31
0.0
  0
LINE
  5
248
330
1F
100
AcDbEntity
  8
0
  6
Continuous
 62
     7
100
AcDbLine
 10
-69.91161765677685
 20
30.1
 30
0.0
 11
-69.91161765677685
 21
40.1
 31
0.0
  0
LINE
  5
249
330
1F
100
AcDbEntity
  8
0
  6
Continuous
 62
     7
100
AcDbLine
 10
-62.91161765677686
 20
40.1
 30
0.0
 11
-62.91161765677686
 21
30.1
 31
0.0
  0
LINE
  5
24A
330
1F
100
AcDbEntity
  8
0
  6
Continuous
 62
     7
100
AcDbLine
 10
-55.41311221410656
 20
40.1
 30
0.0
 11
-55.41311221410656
 21
35.1
 31
0.0
  0
LINE
  5
24B
330
1F
100
AcDbEntity
  8
0
  6
Continuous
 62
     7
100
AcDbLine
 10
-54.16311221410656
 20
35.1
 30
0.0
 11
-54.16311221410656
 21
40.1
 31
0.0
  0
LINE
  5
24C
330
1F
100
AcDbEntity
  8
0
  6
Continuous
 62
     7
100
AcDbLine
 10
-54.41311221410656
 20
40.1
 30
0.0
 11
-54.41311221410656
 21
35.1
 31
0.0
  0
LINE
  5
24D
330
1F
100
AcDbEntity
  8
0
  6
Continuous
 62
     7
100
AcDbLine
 10
-69.91161765677685
 20
40.1
 30
0.0
 11
-62.91161765677686
 21
40.1
 31
0.0
  0
LINE
  5
24E
330
1F
100
AcDbEntity
  8
0
  6
Continuous
 62
     7
100
AcDbLine
 10
-67.91311221410656
 20
54.320105116796
 30
0.0
 11
-69.91161765677685
 21
40.1
 31
0.0
  0
LINE
  5
24F
330
1F
100
AcDbEntity
  8
0
  6
Continuous
 62
     7
100
AcDbLine
 10
-78.86704628641965
 20
-24.4
 30
0.0
 11
-79.86704628641965
 21
-22.9
 31
0.0
  0
LINE
  5
250
330
1F
100
AcDbEntity
  8
0
  6
Continuous
 62
     7
100
AcDbLine
 10
-78.86704628641965
 20
-24.4
 30
0.0
 11
-79.86704628641965
 21
-25.9
 31
0.0
  0
LINE
  5
251
330
1F
100
AcDbEntity
  8
0
  6
Continuous
 62
     7
100
AcDbLine
 10
-72.86704628641965
 20
-22.9
 30
0.0
 11
-79.86704628641965
 21
-22.9
 31
0.0
  0
LINE
  5
252
330
1F
100
AcDbEntity
  8
0
  6
Continuous
 62
     7
100
AcDbLine
 10
-75.80955217957215
 20
-15.9
 30
0.0
 11
-70.98732995734986
 21
15.1
 31
0.0
  0
LINE
  5
253
330
1F
100
AcDbEntity
  8
0
  6
Continuous
 62
     7
100
AcDbLine
 10
-72.86704628641962
 20
25.09999999999999
 30
0.0
 11
-79.86704628641964
 21
-19.9
 31
0.0
  0
LINE
  5
254
330
1F
100
AcDbEntity
  8
0
  6
Continuous
 62
     7
100
AcDbLine
 10
-72.86704628641965
 20
-19.9
 30
0.0
 11
-72.86704628641965
 21
-22.9
 31
0.0
  0
LINE
  5
255
330
1F
100
AcDbEntity
  8
0
  6
Continuous
 62
     7
100
AcDbLine
 10
-79.86704628641964
 20
-19.9
 30
0.0
 11
-79.86704628641965
 21
-22.9
 31
0.0
  0
LINE
  5
256
330
1F
100
AcDbEntity
  8
0
  6
Continuous
 62
     7
100
AcDbLine
 10
-79.86704628641964
 20
-19.9
 30
0.0
 11
-72.86704628641965
 21
-19.9
 31
0.0
  0
LINE
  5
257
330
1F
100
AcDbEntity
  8
0
  6
Continuous
 62
     7
100
AcDbLine
 10
-79.86704628641965
 20
-31.9
 30
0.0
 11
-79.86704628641965
 21
-28.9
 31
0.0
  0
LINE
  5
258
330
1F
100
AcDbEntity
  8
0
  6
Continuous
 62
     7
100
AcDbLine
 10
-78.86704628641965
 20
-33.4
 30
0.0
 11
-79.86704628641965
 21
-34.9
 31
0.0
  0
LINE
  5
259
330
1F
100
AcDbEntity
  8
0
  6
Continuous
 62
     7
100
AcDbLine
 10
-78.86704628641965
 20
-33.4
 30
0.0
 11
-79.86704628641965
 21
-31.9
 31
0.0
  0
LINE
  5
25A
330
1F
100
AcDbEntity
  8
0
  6
Continuous
 62
     7
100
AcDbLine
 10
-78.86704628641965
 20
-27.4
 30
0.0
 11
-79.86704628641965
 21
-28.9
 31
0.0
  0
LINE
  5
25B
330
1F
100
AcDbEntity
  8
0
  6
Continuous
 62
     7
100
AcDbLine
 10
-79.86704628641965
 20
-34.9
 30
0.0
 11
-79.86704628641965
 21
-31.9
 31
0.0
  0
LINE
  5
25C
330
1F
100
AcDbEntity
  8
0
  6
Continuous
 62
     7
100
AcDbLine
 10
-79.86704628641965
 20
-40.9
 30
0.0
 11
-79.86704628641965
 21
-37.9
 31
0.0
  0
LINE
  5
25D
330
1F
100
AcDbEntity
  8
0
  6
Continuous
 62
     7
100
AcDbLine
 10
-72.86704628641965
 20
-24.4
 30
0.0
 11
-78.86704628641965
 21
-24.4
 31
0.0
  0
LINE
  5
25E
330
1F
100
AcDbEntity
  8
0
  6
Continuous
 62
     7
100
AcDbLine
 10
-79.86704628641965
 20
-40.9
 30
0.0
 11
-72.86704628641965
 21
-40.9
 31
0.0
  0
LINE
  5
25F
330
1F
100
AcDbEntity
  8
0
  6
Continuous
 62
     7
100
AcDbLine
 10
-72.86704628641965
 20
-25.9
 30
0.0
 11
-79.86704628641965
 21
-25.9
 31
0.0
  0
LINE
  5
260
330
1F
100
AcDbEntity
  8
0
  6
Continuous
 62
     7
100
AcDbLine
 10
-78.86704628641965
 20
-36.4
 30
0.0
 11
-79.86704628641965
 21
-34.9
 31
0.0
  0
LINE
  5
261
330
1F
100
AcDbEntity
  8
0
  6
Continuous
 62
     7
100
AcDbLine
 10
-72.86704628641965
 20
-39.4
 30
0.0
 11
-78.86704628641962
 21
-39.40000000000002
 31
0.0
  0
LINE
  5
262
330
1F
100
AcDbEntity
  8
0
  6
Continuous
 62
     7
100
AcDbLine
 10
-72.86704628641965
 20
-34.9
 30
0.0
 11
-79.86704628641965
 21
-34.9
 31
0.0
  0
LINE
  5
263
330
1F
100
AcDbEntity
  8
0
  6
Continuous
 62
     7
100
AcDbLine
 10
-72.86704628641965
 20
-36.4
 30
0.0
 11
-78.86704628641965
 21
-36.4
 31
0.0
  0
LINE
  5
264
330
1F
100
AcDbEntity
  8
0
  6
Continuous
 62
     7
100
AcDbLine
 10
-78.86704628641965
 20
-36.4
 30
0.0
 11
-79.86704628641965
 21
-37.9
 31
0.0
  0
LINE
  5
265
330
1F
100
AcDbEntity
  8
0
  6
Continuous
 62
     7
100
AcDbLine
 10
-72.86704628641965
 20
-37.9
 30
0.0
 11
-79.86704628641965
 21
-37.9
 31
0.0
  0
LINE
  5
266
330
1F
100
AcDbEntity
  8
0
  6
Continuous
 62
     7
100
AcDbLine
 10
-78.86704628641962
 20
-39.40000000000002
 30
0.0
 11
-79.86704628641965
 21
-37.9
 31
0.0
  0
LINE
  5
267
330
1F
100
AcDbEntity
  8
0
  6
Continuous
 62
     7
100
AcDbLine
 10
-79.86704628641965
 20
-37.9
 30
0.0
 11
-79.86704628641965
 21
-34.9
 31
0.0
  0
LINE
  5
268
330
1F
100
AcDbEntity
  8
0
  6
Continuous
 62
     7
100
AcDbLine
 10
-72.86704628641965
 20
-27.4
 30
0.0
 11
-78.86704628641965
 21
-27.4
 31
0.0
  0
LINE
  5
269
330
1F
100
AcDbEntity
  8
0
  6
Continuous
 62
     7
100
AcDbLine
 10
-72.86704628641965
 20
-33.4
 30
0.0
 11
-78.86704628641965
 21
-33.4
 31
0.0
  0
LINE
  5
26A
330
1F
100
AcDbEntity
  8
0
  6
Continuous
 62
     7
100
AcDbLine
 10
-72.86704628641965
 20
-31.9
 30
0.0
 11
-79.86704628641965
 21
-31.9
 31
0.0
  0
LINE
  5
26B
330
1F
100
AcDbEntity
  8
0
  6
Continuous
 62
     7
100
AcDbLine
 10
-78.86704628641965
 20
-30.4
 30
0.0
 11
-79.86704628641965
 21
-31.9
 31
0.0
  0
LINE
  5
26C
330
1F
100
AcDbEntity
  8
0
  6
Continuous
 62
     7
100
AcDbLine
 10
-72.86704628641965
 20
-30.4
 30
0.0
 11
-78.86704628641965
 21
-30.4
 31
0.0
  0
LINE
  5
26D
330
1F
100
AcDbEntity
  8
0
  6
Continuous
 62
     7
100
AcDbLine
 10
-72.86704628641965
 20
-28.9
 30
0.0
 11
-79.86704628641965
 21
-28.9
 31
0.0
  0
LINE
  5
26E
330
1F
100
AcDbEntity
  8
0
  6
Continuous
 62
     7
100
AcDbLine
 10
-78.86704628641965
 20
-30.4
 30
0.0
 11
-79.86704628641965
 21
-28.9
 31
0.0
  0
LINE
  5
26F
330
1F
100
AcDbEntity
  8
0
  6
Continuous
 62
     7
100
AcDbLine
 10
-79.86704628641965
 20
-28.9
 30
0.0
 11
-79.86704628641965
 21
-25.9
 31
0.0
  0
LINE
  5
270
330
1F
100
AcDbEntity
  8
0
  6
Continuous
 62
     7
100
AcDbLine
 10
-79.86704628641965
 20
-25.9
 30
0.0
 11
-79.86704628641965
 21
-22.9
 31
0.0
  0
LINE
  5
271
330
1F
100
AcDbEntity
  8
0
  6
Continuous
 62
     7
100
AcDbLine
 10
-78.86704628641965
 20
-27.4
 30
0.0
 11
-79.86704628641965
 21
-25.9
 31
0.0
  0
LINE
  5
272
330
1F
100
AcDbEntity
  8
0
  6
Continuous
 62
     7
100
AcDbLine
 10
-79.86704628641965
 20
-52.9
 30
0.0
 11
-72.86704628641965
 21
-52.9
 31
0.0
  0
LINE
  5
273
330
1F
100
AcDbEntity
  8
0
  6
Continuous
 62
     7
100
AcDbLine
 10
-79.86704628641965
 20
-40.9
 30
0.0
 11
-79.86704628641965
 21
-52.9
 31
0.0
  0
LINE
  5
274
330
1F
100
AcDbEntity
  8
0
  6
Continuous
 62
     7
100
AcDbLine
 10
-78.86704628641962
 20
-39.40000000000002
 30
0.0
 11
-79.86704628641965
 21
-40.9
 31
0.0
  0
LINE
  5
275
330
1F
100
AcDbEntity
  8
0
  6
Continuous
 62
     7
100
AcDbLine
 10
-56.41342671229646
 20
40.1
 30
0.0
 11
-56.54435632014236
 21
45.1
 31
0.0
  0
LINE
  5
276
330
1F
100
AcDbEntity
  8
0
  6
Continuous
 62
     7
100
AcDbLine
 10
-65.41311221410656
 20
45.1
 30
0.0
 11
-56.54435632014236
 21
45.1
 31
0.0
  0
LINE
  5
277
330
1F
100
AcDbEntity
  8
0
  6
Continuous
 62
     7
100
AcDbLine
 10
-54.91311221410656
 20
57.1
 30
0.0
 11
-65.41311221410656
 21
57.1
 31
0.0
  0
LINE
  5
278
330
1F
100
AcDbEntity
  8
0
  6
Continuous
 62
     7
100
AcDbLine
 10
-67.91311221410656
 20
54.320105116796
 30
0.0
 11
-67.91311221410656
 21
47.6
 31
0.0
  0
LINE
  5
279
330
1F
100
AcDbEntity
  8
0
  6
Continuous
 62
     7
100
AcDbLine
 10
-54.91311221410656
 20
57.1
 30
0.0
 11
-54.91311221410656
 21
56.1
 31
0.0
  0
LINE
  5
27A
330
1F
100
AcDbEntity
  8
0
  6
Continuous
 62
     7
100
AcDbLine
 10
32.57054451209075
 20
-16.9
 30
0.0
 11
-72.31619448578415
 21
-16.9
 31
0.0
  0
LINE
  5
27B
330
1F
100
AcDbEntity
  8
0
  6
Continuous
 62
     7
100
AcDbLine
 10
8.08688778589342
 20
30.0
 30
0.0
 11
7.96188778589342
 21
30.1
 31
0.0
  0
LINE
  5
27C
330
1F
100
AcDbEntity
  8
0
  6
Continuous
 62
     7
100
AcDbLine
 10
8.08688778589342
 20
30.0
 30
0.0
 11
7.58688778589342
 21
29.6
 31
0.0
  0
LINE
  5
27D
330
1F
100
AcDbEntity
  8
0
  6
Continuous
 62
     7
100
AcDbLine
 10
12.08688778589342
 20
30.0
 30
0.0
 11
12.58688778589342
 21
29.6
 31
0.0
  0
LINE
  5
27E
330
1F
100
AcDbEntity
  8
0
  6
Continuous
 62
     7
100
AcDbLine
 10
33.13295371358035
 20
-19.9
 30
0.0
 11
33.13295371358035
 21
-22.9
 31
0.0
  0
LINE
  5
27F
330
1F
100
AcDbEntity
  8
0
  6
Continuous
 62
     7
100
AcDbLine
 10
33.13295371358035
 20
-27.4
 30
0.0
 11
33.13295371358035
 21
-28.9
 31
0.0
  0
LINE
  5
280
330
1F
100
AcDbEntity
  8
0
  6
Continuous
 62
     7
100
AcDbLine
 10
33.13295371358035
 20
-22.9
 30
0.0
 11
33.13295371358035
 21
-24.4
 31
0.0
  0
LINE
  5
281
330
1F
100
AcDbEntity
  8
0
  6
Continuous
 62
     7
100
AcDbLine
 10
33.13295371358035
 20
-25.9
 30
0.0
 11
33.13295371358035
 21
-27.4
 31
0.0
  0
LINE
  5
282
330
1F
100
AcDbEntity
  8
0
  6
Continuous
 62
     7
100
AcDbLine
 10
33.13295371358035
 20
-24.4
 30
0.0
 11
33.13295371358035
 21
-25.9
 31
0.0
  0
LINE
  5
283
330
1F
100
AcDbEntity
  8
0
  6
Continuous
 62
     7
100
AcDbLine
 10
33.13295371358035
 20
-39.4
 30
0.0
 11
33.13295371358035
 21
-40.9
 31
0.0
  0
LINE
  5
284
330
1F
100
AcDbEntity
  8
0
  6
Continuous
 62
     7
100
AcDbLine
 10
33.13295371358035
 20
-28.9
 30
0.0
 11
33.13295371358035
 21
-30.4
 31
0.0
  0
LINE
  5
285
330
1F
100
AcDbEntity
  8
0
  6
Continuous
 62
     7
100
AcDbLine
 10
33.13295371358035
 20
-30.4
 30
0.0
 11
33.13295371358035
 21
-31.9
 31
0.0
  0
LINE
  5
286
330
1F
100
AcDbEntity
  8
0
  6
Continuous
 62
     7
100
AcDbLine
 10
33.13295371358035
 20
-31.9
 30
0.0
 11
33.13295371358035
 21
-33.4
 31
0.0
  0
LINE
  5
287
330
1F
100
AcDbEntity
  8
0
  6
Continuous
 62
     7
100
AcDbLine
 10
33.13295371358035
 20
-33.4
 30
0.0
 11
33.13295371358035
 21
-34.9
 31
0.0
  0
LINE
  5
288
330
1F
100
AcDbEntity
  8
0
  6
Continuous
 62
     7
100
AcDbLine
 10
33.13295371358035
 20
-37.9
 30
0.0
 11
33.13295371358035
 21
-39.4
 31
0.0
  0
LINE
  5
289
330
1F
100
AcDbEntity
  8
0
  6
Continuous
 62
     7
100
AcDbLine
 10
33.13295371358035
 20
-36.4
 30
0.0
 11
33.13295371358035
 21
-37.9
 31
0.0
  0
LINE
  5
28A
330
1F
100
AcDbEntity
  8
0
  6
Continuous
 62
     7
100
AcDbLine
 10
33.13295371358035
 20
-34.9
 30
0.0
 11
33.13295371358035
 21
-36.4
 31
0.0
  0
LINE
  5
28B
330
1F
100
AcDbEntity
  8
0
  6
Continuous
 62
     7
100
AcDbLine
 10
8.08688778589342
 20
30.0
 30
0.0
 11
12.08688778589342
 21
30.0
 31
0.0
  0
LINE
  5
28C
330
1F
100
AcDbEntity
  8
0
  6
Continuous
 62
     7
100
AcDbLine
 10
7.58688778589342
 20
29.6
 30
0.0
 11
12.58688778589342
 21
29.6
 31
0.0
  0
LINE
  5
28D
330
1F
100
AcDbEntity
  8
0
  6
Continuous
 62
     7
100
AcDbLine
 10
12.08688778589342
 20
30.0
 30
0.0
 11
12.21188778589342
 21
30.1
 31
0.0
  0
LINE
  5
28E
330
1F
100
AcDbEntity
  8
0
  6
Continuous
 62
     7
100
AcDbLine
 10
23.08539322856372
 20
30.1
 30
0.0
 11
30.08539322856374
 21
30.1
 31
0.0
  0
LINE
  5
28F
330
1F
100
AcDbEntity
  8
0
  6
Continuous
 62
     7
100
AcDbLine
 10
30.08539322856374
 20
30.1
 30
0.0
 11
30.08657302014784
 21
30.1
 31
0.0
  0
LINE
  5
290
330
1F
100
AcDbEntity
  8
0
  6
Continuous
 62
     7
100
AcDbLine
 10
-62.91161765677686
 20
30.1
 30
0.0
 11
23.08539322856372
 21
30.1
 31
0.0
  0
LINE
  5
291
330
1F
100
AcDbEntity
  8
0
  6
Continuous
 62
     7
100
AcDbLine
 10
15.58688778589342
 20
40.1
 30
0.0
 11
14.58688778589342
 21
40.1
 31
0.0
  0
LINE
  5
292
330
1F
100
AcDbEntity
  8
0
  6
Continuous
 62
     7
100
AcDbLine
 10
15.58688778589342
 20
40.1
 30
0.0
 11
15.58688778589342
 21
35.1
 31
0.0
  0
LINE
  5
293
330
1F
100
AcDbEntity
  8
0
  6
Continuous
 62
     7
100
AcDbLine
 10
14.58688778589342
 20
40.1
 30
0.0
 11
14.58688778589342
 21
35.1
 31
0.0
  0
LINE
  5
294
330
1F
100
AcDbEntity
  8
0
  6
Continuous
 62
     7
100
AcDbLine
 10
23.08539322856372
 20
40.1
 30
0.0
 11
23.08539322856372
 21
30.1
 31
0.0
  0
LINE
  5
295
330
1F
100
AcDbEntity
  8
0
  6
Continuous
 62
     7
100
AcDbLine
 10
30.08657302014784
 20
40.0916053466835
 30
0.0
 11
30.08657302014784
 21
30.1
 31
0.0
  0
LINE
  5
296
330
1F
100
AcDbEntity
  8
0
  6
Continuous
 62
     7
100
AcDbLine
 10
30.08657302014784
 20
40.0916053466835
 30
0.0
 11
30.08539322856374
 21
40.1
 31
0.0
  0
LINE
  5
297
330
1F
100
AcDbEntity
  8
0
  6
Continuous
 62
     7
100
AcDbLine
 10
30.08539322856374
 20
30.1
 30
0.0
 11
30.08539322856374
 21
40.1
 31
0.0
  0
LINE
  5
298
330
1F
100
AcDbEntity
  8
0
  6
Continuous
 62
     7
100
AcDbLine
 10
23.08539322856372
 20
40.1
 30
0.0
 11
30.08539322856374
 21
40.1
 31
0.0
  0
LINE
  5
299
330
1F
100
AcDbEntity
  8
0
  6
Continuous
 62
     7
100
AcDbLine
 10
14.33688778589342
 20
35.1
 30
0.0
 11
15.58688778589342
 21
35.1
 31
0.0
  0
LINE
  5
29A
330
1F
100
AcDbEntity
  8
0
  6
Continuous
 62
     7
100
AcDbLine
 10
4.58688778589342
 20
40.1
 30
0.0
 11
4.58688778589342
 21
35.1
 31
0.0
  0
LINE
  5
29B
330
1F
100
AcDbEntity
  8
0
  6
Continuous
 62
     7
100
AcDbLine
 10
5.83688778589342
 20
40.1
 30
0.0
 11
5.58688778589342
 21
40.1
 31
0.0
  0
LINE
  5
29C
330
1F
100
AcDbEntity
  8
0
  6
Continuous
 62
     7
100
AcDbLine
 10
5.58688778589342
 20
40.1
 30
0.0
 11
4.58688778589342
 21
40.1
 31
0.0
  0
LINE
  5
29D
330
1F
100
AcDbEntity
  8
0
  6
Continuous
 62
     7
100
AcDbLine
 10
5.58688778589342
 20
40.1
 30
0.0
 11
5.58688778589342
 21
35.1
 31
0.0
  0
LINE
  5
29E
330
1F
100
AcDbEntity
  8
0
  6
Continuous
 62
     7
100
AcDbLine
 10
4.58688778589342
 20
35.1
 30
0.0
 11
5.83688778589342
 21
35.1
 31
0.0
  0
LINE
  5
29F
330
1F
100
AcDbEntity
  8
0
  6
Continuous
 62
     7
100
AcDbLine
 10
33.13295371358035
 20
-27.4
 30
0.0
 11
-72.86704628641965
 21
-27.4
 31
0.0
  0
LINE
  5
2A0
330
1F
100
AcDbEntity
  8
0
  6
Continuous
 62
     7
100
AcDbLine
 10
33.13295371358035
 20
-28.9
 30
0.0
 11
-72.86704628641965
 21
-28.9
 31
0.0
  0
LINE
  5
2A1
330
1F
100
AcDbEntity
  8
0
  6
Continuous
 62
     7
100
AcDbLine
 10
-72.86704628641965
 20
-22.9
 30
0.0
 11
33.13295371358035
 21
-22.9
 31
0.0
  0
LINE
  5
2A2
330
1F
100
AcDbEntity
  8
0
  6
Continuous
 62
     7
100
AcDbLine
 10
33.13295371358035
 20
-40.9
 30
0.0
 11
-72.86704628641965
 21
-40.9
 31
0.0
  0
LINE
  5
2A3
330
1F
100
AcDbEntity
  8
0
  6
Continuous
 62
     7
100
AcDbLine
 10
33.13295371358035
 20
-30.4
 30
0.0
 11
-72.86704628641965
 21
-30.4
 31
0.0
  0
LINE
  5
2A4
330
1F
100
AcDbEntity
  8
0
  6
Continuous
 62
     7
100
AcDbLine
 10
33.13295371358035
 20
-31.9
 30
0.0
 11
-72.86704628641965
 21
-31.9
 31
0.0
  0
LINE
  5
2A5
330
1F
100
AcDbEntity
  8
0
  6
Continuous
 62
     7
100
AcDbLine
 10
33.13295371358035
 20
-33.4
 30
0.0
 11
-72.86704628641965
 21
-33.4
 31
0.0
  0
LINE
  5
2A6
330
1F
100
AcDbEntity
  8
0
  6
Continuous
 62
     7
100
AcDbLine
 10
33.13295371358035
 20
-34.9
 30
0.0
 11
-72.86704628641965
 21
-34.9
 31
0.0
  0
LINE
  5
2A7
330
1F
100
AcDbEntity
  8
0
  6
Continuous
 62
     7
100
AcDbLine
 10
33.13295371358035
 20
-36.4
 30
0.0
 11
-72.86704628641965
 21
-36.4
 31
0.0
  0
LINE
  5
2A8
330
1F
100
AcDbEntity
  8
0
  6
Continuous
 62
     7
100
AcDbLine
 10
33.13295371358035
 20
-37.9
 30
0.0
 11
-72.86704628641965
 21
-37.9
 31
0.0
  0
LINE
  5
2A9
330
1F
100
AcDbEntity
  8
0
  6
Continuous
 62
     7
100
AcDbLine
 10
33.13295371358035
 20
-39.4
 30
0.0
 11
-72.86704628641965
 21
-39.4
 31
0.0
  0
LINE
  5
2AA
330
1F
100
AcDbEntity
  8
0
  6
Continuous
 62
     7
100
AcDbLine
 10
33.13295371358035
 20
-25.9
 30
0.0
 11
-72.86704628641965
 21
-25.9
 31
0.0
  0
LINE
  5
2AB
330
1F
100
AcDbEntity
  8
0
  6
Continuous
 62
     7
100
AcDbLine
 10
33.13295371358035
 20
-24.4
 30
0.0
 11
-72.86704628641965
 21
-24.4
 31
0.0
  0
LINE
  5
2AC
330
1F
100
AcDbEntity
  8
0
  6
Continuous
 62
     7
100
AcDbLine
 10
-72.86704628641965
 20
-52.9
 30
0.0
 11
33.13295371358035
 21
-52.9
 31
0.0
  0
LINE
  5
2AD
330
1F
100
AcDbEntity
  8
0
  6
Continuous
 62
     7
100
AcDbLine
 10
30.08539322856374
 20
40.1
 30
0.0
 11
28.08688778589344
 21
54.3201051167962
 31
0.0
  0
LINE
  5
2AE
330
1F
100
AcDbEntity
  8
0
  6
Continuous
 62
     7
100
AcDbLine
 10
28.08688778589344
 20
47.6
 30
0.0
 11
28.08688778589344
 21
54.3201051167962
 31
0.0
  0
LINE
  5
2AF
330
1F
100
AcDbEntity
  8
0
  6
Continuous
 62
     7
100
AcDbLine
 10
28.08688778589344
 20
54.6
 30
0.0
 11
28.08688778589344
 21
54.3201051167962
 31
0.0
  0
LINE
  5
2B0
330
1F
100
AcDbEntity
  8
0
  6
Continuous
 62
     7
100
AcDbLine
 10
39.13295371358036
 20
-24.40000000000001
 30
0.0
 11
40.13295371358035
 21
-22.9
 31
0.0
  0
LINE
  5
2B1
330
1F
100
AcDbEntity
  8
0
  6
Continuous
 62
     7
100
AcDbLine
 10
39.13295371358035
 20
-27.4
 30
0.0
 11
40.13295371358035
 21
-28.9
 31
0.0
  0
LINE
  5
2B2
330
1F
100
AcDbEntity
  8
0
  6
Continuous
 62
     7
100
AcDbLine
 10
33.13295371358035
 20
-52.9
 30
0.0
 11
33.13295371358035
 21
-40.9
 31
0.0
  0
LINE
  5
2B3
330
1F
100
AcDbEntity
  8
0
  6
Continuous
 62
     7
100
AcDbLine
 10
31.15273734735331
 20
15.09999999999996
 30
0.0
 11
36.06265499741394
 21
-15.9
 31
0.0
  0
LINE
  5
2B4
330
1F
100
AcDbEntity
  8
0
  6
Continuous
 62
     7
100
AcDbLine
 10
32.57054451209075
 20
-16.9
 30
0.0
 11
33.04569783306434
 21
-19.9
 31
0.0
  0
LINE
  5
2B5
330
1F
100
AcDbEntity
  8
0
  6
Continuous
 62
     7
100
AcDbLine
 10
33.04569783306434
 20
-19.9
 30
0.0
 11
33.13295371358035
 21
-19.9
 31
0.0
  0
LINE
  5
2B6
330
1F
100
AcDbEntity
  8
0
  6
Continuous
 62
     7
100
AcDbLine
 10
39.13295371358035
 20
-27.4
 30
0.0
 11
40.13295371358035
 21
-25.9
 31
0.0
  0
LINE
  5
2B7
330
1F
100
AcDbEntity
  8
0
  6
Continuous
 62
     7
100
AcDbLine
 10
40.13295371358035
 20
-19.90000000000001
 30
0.0
 11
40.13295371358035
 21
-22.9
 31
0.0
  0
LINE
  5
2B8
330
1F
100
AcDbEntity
  8
0
  6
Continuous
 62
     7
100
AcDbLine
 10
39.13295371358035
 20
-33.4
 30
0.0
 11
40.13295371358035
 21
-34.9
 31
0.0
  0
LINE
  5
2B9
330
1F
100
AcDbEntity
  8
0
  6
Continuous
 62
     7
100
AcDbLine
 10
39.13295371358035
 20
-33.4
 30
0.0
 11
40.13295371358035
 21
-31.9
 31
0.0
  0
LINE
  5
2BA
330
1F
100
AcDbEntity
  8
0
  6
Continuous
 62
     7
100
AcDbLine
 10
39.13295371358035
 20
-30.4
 30
0.0
 11
40.13295371358035
 21
-31.9
 31
0.0
  0
LINE
  5
2BB
330
1F
100
AcDbEntity
  8
0
  6
Continuous
 62
     7
100
AcDbLine
 10
39.13295371358035
 20
-36.4
 30
0.0
 11
40.13295371358035
 21
-34.9
 31
0.0
  0
LINE
  5
2BC
330
1F
100
AcDbEntity
  8
0
  6
Continuous
 62
     7
100
AcDbLine
 10
39.13295371358035
 20
-30.4
 30
0.0
 11
40.13295371358035
 21
-28.9
 31
0.0
  0
LINE
  5
2BD
330
1F
100
AcDbEntity
  8
0
  6
Continuous
 62
     7
100
AcDbLine
 10
39.13295371358036
 20
-24.40000000000001
 30
0.0
 11
40.13295371358035
 21
-25.9
 31
0.0
  0
LINE
  5
2BE
330
1F
100
AcDbEntity
  8
0
  6
Continuous
 62
     7
100
AcDbLine
 10
40.13295371358035
 20
-25.9
 30
0.0
 11
40.13295371358035
 21
-22.9
 31
0.0
  0
LINE
  5
2BF
330
1F
100
AcDbEntity
  8
0
  6
Continuous
 62
     7
100
AcDbLine
 10
40.13295371358035
 20
-28.9
 30
0.0
 11
40.13295371358035
 21
-25.9
 31
0.0
  0
LINE
  5
2C0
330
1F
100
AcDbEntity
  8
0
  6
Continuous
 62
     7
100
AcDbLine
 10
40.13295371358035
 20
-34.9
 30
0.0
 11
40.13295371358035
 21
-31.9
 31
0.0
  0
LINE
  5
2C1
330
1F
100
AcDbEntity
  8
0
  6
Continuous
 62
     7
100
AcDbLine
 10
40.13295371358035
 20
-31.9
 30
0.0
 11
40.13295371358035
 21
-28.9
 31
0.0
  0
LINE
  5
2C2
330
1F
100
AcDbEntity
  8
0
  6
Continuous
 62
     7
100
AcDbLine
 10
33.13295371358035
 20
-19.9
 30
0.0
 11
40.13295371358035
 21
-19.90000000000001
 31
0.0
  0
LINE
  5
2C3
330
1F
100
AcDbEntity
  8
0
  6
Continuous
 62
     7
100
AcDbLine
 10
40.13295371358035
 20
-22.9
 30
0.0
 11
33.13295371358035
 21
-22.9
 31
0.0
  0
LINE
  5
2C4
330
1F
100
AcDbEntity
  8
0
  6
Continuous
 62
     7
100
AcDbLine
 10
39.13295371358035
 20
-39.4
 30
0.0
 11
40.13295371358035
 21
-40.9
 31
0.0
  0
LINE
  5
2C5
330
1F
100
AcDbEntity
  8
0
  6
Continuous
 62
     7
100
AcDbLine
 10
33.13295371358035
 20
-40.9
 30
0.0
 11
40.13295371358035
 21
-40.9
 31
0.0
  0
LINE
  5
2C6
330
1F
100
AcDbEntity
  8
0
  6
Continuous
 62
     7
100
AcDbLine
 10
33.13295371358035
 20
-52.9
 30
0.0
 11
40.13295371358035
 21
-52.9
 31
0.0
  0
LINE
  5
2C7
330
1F
100
AcDbEntity
  8
0
  6
Continuous
 62
     7
100
AcDbLine
 10
33.13295371358035
 20
-28.9
 30
0.0
 11
40.13295371358035
 21
-28.9
 31
0.0
  0
LINE
  5
2C8
330
1F
100
AcDbEntity
  8
0
  6
Continuous
 62
     7
100
AcDbLine
 10
33.13295371358035
 20
-27.4
 30
0.0
 11
39.13295371358035
 21
-27.4
 31
0.0
  0
LINE
  5
2C9
330
1F
100
AcDbEntity
  8
0
  6
Continuous
 62
     7
100
AcDbLine
 10
33.13295371358035
 20
-24.4
 30
0.0
 11
39.13295371358036
 21
-24.40000000000001
 31
0.0
  0
LINE
  5
2CA
330
1F
100
AcDbEntity
  8
0
  6
Continuous
 62
     7
100
AcDbLine
 10
33.13295371358035
 20
-30.4
 30
0.0
 11
39.13295371358035
 21
-30.4
 31
0.0
  0
LINE
  5
2CB
330
1F
100
AcDbEntity
  8
0
  6
Continuous
 62
     7
100
AcDbLine
 10
33.13295371358035
 20
-25.9
 30
0.0
 11
40.13295371358035
 21
-25.9
 31
0.0
  0
LINE
  5
2CC
330
1F
100
AcDbEntity
  8
0
  6
Continuous
 62
     7
100
AcDbLine
 10
33.13295371358035
 20
-31.9
 30
0.0
 11
40.13295371358035
 21
-31.9
 31
0.0
  0
LINE
  5
2CD
330
1F
100
AcDbEntity
  8
0
  6
Continuous
 62
     7
100
AcDbLine
 10
33.13295371358035
 20
-33.4
 30
0.0
 11
39.13295371358035
 21
-33.4
 31
0.0
  0
LINE
  5
2CE
330
1F
100
AcDbEntity
  8
0
  6
Continuous
 62
     7
100
AcDbLine
 10
33.13295371358035
 20
-34.9
 30
0.0
 11
40.13295371358035
 21
-34.9
 31
0.0
  0
LINE
  5
2CF
330
1F
100
AcDbEntity
  8
0
  6
Continuous
 62
     7
100
AcDbLine
 10
33.13295371358035
 20
-36.4
 30
0.0
 11
39.13295371358035
 21
-36.4
 31
0.0
  0
LINE
  5
2D0
330
1F
100
AcDbEntity
  8
0
  6
Continuous
 62
     7
100
AcDbLine
 10
39.13295371358035
 20
-36.4
 30
0.0
 11
40.13295371358035
 21
-37.9
 31
0.0
  0
LINE
  5
2D1
330
1F
100
AcDbEntity
  8
0
  6
Continuous
 62
     7
100
AcDbLine
 10
40.13295371358035
 20
-37.9
 30
0.0
 11
40.13295371358035
 21
-34.9
 31
0.0
  0
LINE
  5
2D2
330
1F
100
AcDbEntity
  8
0
  6
Continuous
 62
     7
100
AcDbLine
 10
33.13295371358035
 20
-37.9
 30
0.0
 11
40.13295371358035
 21
-37.9
 31
0.0
  0
LINE
  5
2D3
330
1F
100
AcDbEntity
  8
0
  6
Continuous
 62
     7
100
AcDbLine
 10
33.13295371358035
 20
-39.4
 30
0.0
 11
39.13295371358035
 21
-39.4
 31
0.0
  0
LINE
  5
2D4
330
1F
100
AcDbEntity
  8
0
  6
Continuous
 62
     7
100
AcDbLine
 10
39.13295371358035
 20
-39.4
 30
0.0
 11
40.13295371358035
 21
-37.9
 31
0.0
  0
LINE
  5
2D5
330
1F
100
AcDbEntity
  8
0
  6
Continuous
 62
     7
100
AcDbLine
 10
40.13295371358035
 20
-40.9
 30
0.0
 11
40.13295371358035
 21
-37.9
 31
0.0
  0
LINE
  5
2D6
330
1F
100
AcDbEntity
  8
0
  6
Continuous
 62
     7
100
AcDbLine
 10
40.13295371358035
 20
-40.9
 30
0.0
 11
40.13295371358035
 21
-52.9
 31
0.0
  0
LINE
  5
2D7
330
1F
100
AcDbEntity
  8
0
  6
Continuous
 62
     7
100
AcDbLine
 10
15.08688778589342
 20
57.1
 30
0.0
 11
25.58688778589344
 21
57.1
 31
0.0
  0
LINE
  5
2D8
330
1F
100
AcDbEntity
  8
0
  6
Continuous
 62
     7
100
AcDbLine
 10
16.71813189192923
 20
45.1
 30
0.0
 11
16.5872022840833
 21
40.1
 31
0.0
  0
LINE
  5
2D9
330
1F
100
AcDbEntity
  8
0
  6
Continuous
 62
     7
100
AcDbLine
 10
16.71813189192923
 20
45.1
 30
0.0
 11
25.58688778589344
 21
45.1
 31
0.0
  0
LINE
  5
2DA
330
1F
100
AcDbEntity
  8
0
  6
Continuous
 62
     7
100
AcDbLine
 10
15.08688778589342
 20
56.1
 30
0.0
 11
15.08688778589342
 21
57.1
 31
0.0
  0
LINE
  5
2DB
330
1F
100
AcDbEntity
  8
0
  6
Continuous
 62
     7
100
AcDbLine
 10
-54.16311221410656
 20
35.1
 30
0.0
 11
-45.66311221410656
 21
35.1
 31
0.0
  0
LINE
  5
2DC
330
1F
100
AcDbEntity
  8
0
  6
Continuous
 62
     7
100
AcDbLine
 10
-72.86704628641965
 20
-52.9
 30
0.0
 11
-72.86704628641965
 21
-40.9
 31
0.0
  0
LINE
  5
2DD
330
1F
100
AcDbEntity
  8
0
  6
Continuous
 62
     7
100
AcDbLine
 10
-72.78286115245075
 20
-19.9
 30
0.0
 11
-72.31619448578415
 21
-16.9
 31
0.0
  0
LINE
  5
2DE
330
1F
100
AcDbEntity
  8
0
  6
Continuous
 62
     7
100
AcDbLine
 10
36.06265499741394
 20
-15.9
 30
0.0
 11
-75.80955217957215
 21
-15.9
 31
0.0
  0
LINE
  5
2DF
330
1F
100
AcDbEntity
  8
0
  6
Continuous
 62
     7
100
AcDbLine
 10
-59.86704628641965
 20
-3.9
 30
0.0
 11
-38.86704628641966
 21
-3.9
 31
0.0
  0
LINE
  5
2E0
330
1F
100
AcDbEntity
  8
0
  6
Continuous
 62
     7
100
AcDbLine
 10
-54.91311221410656
 20
57.1
 30
0.0
 11
15.08688778589342
 21
57.1
 31
0.0
  0
LINE
  5
2E1
330
1F
100
AcDbEntity
  8
0
  6
Continuous
 62
     7
100
AcDbLine
 10
25.91839801846014
 20
25.1
 30
0.0
 11
27.34385798138104
 21
16.09999999999998
 31
0.0
  0
LINE
  5
2E2
330
1F
100
AcDbEntity
  8
0
  6
Continuous
 62
     7
100
AcDbLine
 10
33.00565389897622
 20
25.1
 30
0.0
 11
26.04569783306434
 21
25.1
 31
0.0
  0
LINE
  5
2E3
330
1F
100
AcDbEntity
  8
0
  6
Continuous
 62
     7
100
AcDbLine
 10
-36.86704628641966
 20
-1.9
 30
0.0
 11
-36.86704628641966
 21
9.1
 31
0.0
  0
LINE
  5
2E4
330
1F
100
AcDbEntity
  8
0
  6
Continuous
 62
     7
100
AcDbLine
 10
5.83688778589342
 20
35.1
 30
0.0
 11
14.33688778589342
 21
35.1
 31
0.0
  0
LINE
  5
2E5
330
1F
100
AcDbEntity
  8
0
  6
Continuous
 62
     7
100
AcDbLine
 10
-44.41311221410656
 20
40.1
 30
0.0
 11
4.58688778589342
 21
40.1
 31
0.0
  0
LINE
  5
2E6
330
1F
100
AcDbEntity
  8
0
  6
Continuous
 62
     7
100
AcDbLine
 10
15.58688778589342
 20
40.1
 30
0.0
 11
23.08539322856372
 21
40.1
 31
0.0
  0
LINE
  5
2E7
330
1F
100
AcDbEntity
  8
1
  6
Continuous
 62
     7
100
AcDbLine
 10
136.737325776124
 20
-101.523205552138
 30
0.0
 11
136.737325776124
 21
-116.523205552138
 31
0.0
  0
LINE
  5
2E8
330
1F
100
AcDbEntity
  8
1
  6
Continuous
 62
     7
100
AcDbLine
 10
154.0899271536094
 20
-101.523205552138
 30
0.0
 11
154.0899271536094
 21
-116.523205552138
 31
0.0
  0
LINE
  5
2E9
330
1F
100
AcDbEntity
  8
1
  6
Continuous
 62
     7
100
AcDbLine
 10
26.73732577612401
 20
-101.523205552138
 30
0.0
 11
26.73732577612401
 21
-116.523205552138
 31
0.0
  0
LINE
  5
2EA
330
1F
100
AcDbEntity
  8
1
  6
Continuous
 62
     7
100
AcDbLine
 10
-3.26267422387599
 20
-109.023205552138
 30
0.0
 11
26.73732577612401
 21
-109.023205552138
 31
0.0
  0
LINE
  5
2EB
330
1F
100
AcDbEntity
  8
1
  6
Continuous
 62
     7
100
AcDbLine
 10
37.2373257761237
 20
88.47679444786212
 30
0.0
 11
37.2373257761237
 21
73.47679444786212
 31
0.0
  0
LINE
  5
2EC
330
1F
100
AcDbEntity
  8
1
  6
Continuous
 62
     7
100
AcDbLine
 10
-111.2626742238761
 20
-121.523205552138
 30
0.0
 11
185.737325776124
 21
-121.523205552138
 31
0.0
  0
LINE
  5
2ED
330
1F
100
AcDbEntity
  8
1
  6
Continuous
 62
     7
100
AcDbLine
 10
-111.2626742238761
 20
88.47679444786212
 30
0.0
 11
-111.2626742238761
 21
-121.523205552138
 31
0.0
  0
LINE
  5
2EE
330
1F
100
AcDbEntity
  8
1
  6
Continuous
 62
     7
100
AcDbLine
 10
185.737325776124
 20
88.47679444786212
 30
0.0
 11
-111.2626742238761
 21
88.47679444786212
 31
0.0
  0
LINE
  5
2EF
330
1F
100
AcDbEntity
  8
1
  6
Continuous
 62
     7
100
AcDbLine
 10
185.737325776124
 20
-121.523205552138
 30
0.0
 11
185.737325776124
 21
88.47679444786212
 31
0.0
  0
LINE
  5
2F0
330
1F
100
AcDbEntity
  8
1
  6
Continuous
 62
     7
100
AcDbLine
 10
-106.2626742238762
 20
-116.523205552138
 30
0.0
 11
180.737325776124
 21
-116.523205552138
 31
0.0
  0
LINE
  5
2F1
330
1F
100
AcDbEntity
  8
1
  6
Continuous
 62
     7
100
AcDbLine
 10
180.737325776124
 20
-116.523205552138
 30
0.0
 11
180.737325776124
 21
67.476794447862
 31
0.0
  0
LINE
  5
2F2
330
1F
100
AcDbEntity
  8
1
  6
Continuous
 62
     7
100
AcDbLine
 10
180.737325776124
 20
67.476794447862
 30
0.0
 11
-106.2626742238762
 21
67.476794447862
 31
0.0
  0
LINE
  5
2F3
102
{ACAD_REACTORS
330
39A
102
}
330
1F
100
AcDbEntity
  8
1
  6
Continuous
 62
     7
100
AcDbLine
 10
169.7469597982001
 20
-111.4457057123054
 30
0.0
 11
169.7469597982001
 21
-106.6007053919706
 31
0.0
  0
LINE
  5
2F4
102
{ACAD_REACTORS
330
397
102
}
330
1F
100
AcDbEntity
  8
1
  6
Continuous
 62
     7
100
AcDbLine
 10
168.4136264648667
 20
-109.023205552138
 30
0.0
 11
168.4136264648667
 21
-107.2911547445692
 31
0.0
  0
LINE
  5
2F5
102
{ACAD_REACTORS
330
397
102
}
330
1F
100
AcDbEntity
  8
1
  6
Continuous
 62
     7
100
AcDbLine
 10
168.4136264648667
 20
-107.2911547445692
 30
0.0
 11
167.5579640321641
 21
-108.773205552138
 31
0.0
  0
LINE
  5
2F6
102
{ACAD_REACTORS
330
397
102
}
330
1F
100
AcDbEntity
  8
1
  6
Continuous
 62
     7
100
AcDbLine
 10
167.2692888975692
 20
-108.773205552138
 30
0.0
 11
166.4136264648667
 21
-107.2911547445692
 31
0.0
  0
LINE
  5
2F7
102
{ACAD_REACTORS
330
397
102
}
330
1F
100
AcDbEntity
  8
1
  6
Continuous
 62
     7
100
AcDbLine
 10
166.4136264648667
 20
-107.2911547445692
 30
0.0
 11
166.4136264648667
 21
-109.023205552138
 31
0.0
  0
LINE
  5
2F8
330
1F
100
AcDbEntity
  8
1
  6
Continuous
 62
     7
100
AcDbLine
 10
158.9971911897251
 20
-108.8788412877967
 30
0.0
 11
167.4136264648667
 21
-104.023205552138
 31
0.0
  0
LINE
  5
2F9
330
1F
100
AcDbEntity
  8
1
  6
Continuous
 62
     7
100
AcDbLine
 10
167.4136264648667
 20
-104.023205552138
 30
0.0
 11
175.8300617400082
 21
-108.8788412877967
 31
0.0
  0
LINE
  5
2FA
330
1F
100
AcDbEntity
  8
1
  6
Continuous
 62
     7
100
AcDbLine
 10
175.8300617400082
 20
-109.1675698164794
 30
0.0
 11
167.4136264648667
 21
-114.023205552138
 31
0.0
  0
LINE
  5
2FB
330
1F
100
AcDbEntity
  8
1
  6
Continuous
 62
     7
100
AcDbLine
 10
167.4136264648667
 20
-114.023205552138
 30
0.0
 11
158.9971911897251
 21
-109.1675698164794
 31
0.0
  0
LINE
  5
2FC
102
{ACAD_REACTORS
330
397
102
}
330
1F
100
AcDbEntity
  8
1
  6
Continuous
 62
     7
100
AcDbLine
 10
165.7469597982
 20
-109.023205552138
 30
0.0
 11
165.7469597982
 21
-105.7919882401034
 31
0.0
  0
LINE
  5
2FD
102
{ACAD_REACTORS
330
397
102
}
330
1F
100
AcDbEntity
  8
1
  6
Continuous
 62
     7
100
AcDbLine
 10
166.2413934818234
 20
-105.6595051338657
 30
0.0
 11
167.4136264648667
 21
-107.6898722188047
 31
0.0
  0
LINE
  5
2FE
102
{ACAD_REACTORS
330
397
102
}
330
1F
100
AcDbEntity
  8
1
  6
Continuous
 62
     7
100
AcDbLine
 10
165.7469597982
 20
-109.023205552138
 30
0.0
 11
165.7469597982
 21
-110.6756204795051
 31
0.0
  0
LINE
  5
2FF
102
{ACAD_REACTORS
330
397
102
}
330
1F
100
AcDbEntity
  8
1
  6
Continuous
 62
     7
100
AcDbLine
 10
166.4136264648667
 20
-110.6756204795051
 30
0.0
 11
166.4136264648667
 21
-109.023205552138
 31
0.0
  0
LINE
  5
300
102
{ACAD_REACTORS
330
397
102
}
330
1F
100
AcDbEntity
  8
1
  6
Continuous
 62
     7
100
AcDbLine
 10
168.4136264648667
 20
-109.023205552138
 30
0.0
 11
168.4136264648667
 21
-112.2149364815362
 31
0.0
  0
LINE
  5
301
102
{ACAD_REACTORS
330
397
102
}
330
1F
100
AcDbEntity
  8
1
  6
Continuous
 62
     7
100
AcDbLine
 10
169.0802931315333
 20
-112.2149364815362
 30
0.0
 11
169.0802931315333
 21
-105.7919882401034
 31
0.0
  0
LINE
  5
302
102
{ACAD_REACTORS
330
397
102
}
330
1F
100
AcDbEntity
  8
1
  6
Continuous
 62
     7
100
AcDbLine
 10
168.58585944791
 20
-105.6595051338657
 30
0.0
 11
167.4136264648667
 21
-107.6898722188047
 31
0.0
  0
LINE
  5
303
102
{ACAD_REACTORS
330
398
102
}
330
1F
100
AcDbEntity
  8
1
  6
Continuous
 62
     7
100
AcDbLine
 10
164.4136264648667
 20
-111.2531844041054
 30
0.0
 11
164.4136264648667
 21
-106.6007053919706
 31
0.0
  0
LINE
  5
304
102
{ACAD_REACTORS
330
398
102
}
330
1F
100
AcDbEntity
  8
1
  6
Continuous
 62
     7
100
AcDbLine
 10
165.0802931315333
 20
-106.6007053919706
 30
0.0
 11
165.0802931315333
 21
-111.2531844041053
 31
0.0
  0
LINE
  5
305
102
{ACAD_REACTORS
330
398
102
}
330
1F
100
AcDbEntity
  8
1
  6
Continuous
 62
     7
100
AcDbLine
 10
165.0802931315333
 20
-111.2531844041053
 30
0.0
 11
167.2468672826965
 21
-112.5031310297764
 31
0.0
  0
LINE
  5
306
102
{ACAD_REACTORS
330
398
102
}
330
1F
100
AcDbEntity
  8
1
  6
Continuous
 62
     7
100
AcDbLine
 10
166.9137189803701
 20
-113.0805880871422
 30
0.0
 11
164.747144829207
 21
-111.8306414614711
 31
0.0
  0
LINE
  5
307
102
{ACAD_REACTORS
330
399
102
}
330
1F
100
AcDbEntity
  8
1
  6
Continuous
 62
     7
100
AcDbLine
 10
163.7469597982
 20
-107.3699361612013
 30
0.0
 11
163.7469597982
 21
-110.4839536348747
 31
0.0
  0
LINE
  5
308
102
{ACAD_REACTORS
330
399
102
}
330
1F
100
AcDbEntity
  8
1
  6
Continuous
 62
     7
100
AcDbLine
 10
163.7469597982
 20
-110.4839536348747
 30
0.0
 11
163.7469597982
 21
-110.6764749430748
 31
0.0
  0
LINE
  5
309
102
{ACAD_REACTORS
330
399
102
}
330
1F
100
AcDbEntity
  8
1
  6
Continuous
 62
     7
100
AcDbLine
 10
163.0802931315333
 20
-110.6764749430748
 30
0.0
 11
163.0802931315333
 21
-107.3699361612013
 31
0.0
  0
LINE
  5
30A
102
{ACAD_REACTORS
330
39A
102
}
330
1F
100
AcDbEntity
  8
1
  6
Continuous
 62
     7
100
AcDbLine
 10
170.2468672826965
 20
-106.3119768632877
 30
0.0
 11
171.5802006160298
 21
-107.0812076325186
 31
0.0
  0
LINE
  5
30B
102
{ACAD_REACTORS
330
39A
102
}
330
1F
100
AcDbEntity
  8
1
  6
Continuous
 62
     7
100
AcDbLine
 10
171.2470523137035
 20
-107.6586646898842
 30
0.0
 11
170.4136264648667
 21
-107.1778420847861
 31
0.0
  0
LINE
  5
30C
102
{ACAD_REACTORS
330
39A
102
}
330
1F
100
AcDbEntity
  8
1
  6
Continuous
 62
     7
100
AcDbLine
 10
170.4136264648667
 20
-107.1778420847861
 30
0.0
 11
170.4136264648667
 21
-108.6898722188047
 31
0.0
  0
LINE
  5
30D
102
{ACAD_REACTORS
330
39A
102
}
330
1F
100
AcDbEntity
  8
1
  6
Continuous
 62
     7
100
AcDbLine
 10
170.4136264648667
 20
-108.6898722188047
 30
0.0
 11
171.4136264648667
 21
-108.6898722188047
 31
0.0
  0
LINE
  5
30E
102
{ACAD_REACTORS
330
39A
102
}
330
1F
100
AcDbEntity
  8
1
  6
Continuous
 62
     7
100
AcDbLine
 10
171.4136264648667
 20
-109.3565388854714
 30
0.0
 11
170.4136264648667
 21
-109.3565388854714
 31
0.0
  0
LINE
  5
30F
102
{ACAD_REACTORS
330
39A
102
}
330
1F
100
AcDbEntity
  8
1
  6
Continuous
 62
     7
100
AcDbLine
 10
170.4136264648667
 20
-109.3565388854714
 30
0.0
 11
170.4136264648667
 21
-110.8685690194901
 31
0.0
  0
LINE
  5
310
102
{ACAD_REACTORS
330
39A
102
}
330
1F
100
AcDbEntity
  8
1
  6
Continuous
 62
     7
100
AcDbLine
 10
170.4136264648667
 20
-110.8685690194901
 30
0.0
 11
171.2470523137035
 21
-110.3877464143918
 31
0.0
  0
LINE
  5
311
102
{ACAD_REACTORS
330
39A
102
}
330
1F
100
AcDbEntity
  8
1
  6
Continuous
 62
     7
100
AcDbLine
 10
171.5802006160298
 20
-110.9652034717577
 30
0.0
 11
170.2468672826965
 21
-111.7344342409883
 31
0.0
  0
LINE
  5
312
330
1F
100
AcDbEntity
  8
1
  6
Continuous
 62
     7
100
AcDbLine
 10
-3.26267422387599
 20
-96.523205552138
 30
0.0
 11
180.737325776124
 21
-96.523205552138
 31
0.0
  0
LINE
  5
313
330
1F
100
AcDbEntity
  8
1
  6
Continuous
 62
     7
100
AcDbLine
 10
3.73732577612401
 20
-101.523205552138
 30
0.0
 11
3.73732577612401
 21
-96.523205552138
 31
0.0
  0
LINE
  5
314
330
1F
100
AcDbEntity
  8
1
  6
Continuous
 62
     7
100
AcDbLine
 10
21.73732577612412
 20
-101.523205552138
 30
0.0
 11
21.73732577612412
 21
-96.523205552138
 31
0.0
  0
LINE
  5
315
330
1F
100
AcDbEntity
  8
1
  6
Continuous
 62
     7
100
AcDbLine
 10
-3.26267422387599
 20
-91.523205552138
 30
0.0
 11
180.737325776124
 21
-91.523205552138
 31
0.0
  0
LINE
  5
316
330
1F
100
AcDbEntity
  8
1
  6
Continuous
 62
     7
100
AcDbLine
 10
3.73732577612401
 20
-96.523205552138
 30
0.0
 11
3.73732577612401
 21
-91.523205552138
 31
0.0
  0
LINE
  5
317
330
1F
100
AcDbEntity
  8
1
  6
Continuous
 62
     7
100
AcDbLine
 10
21.73732577612412
 20
-96.523205552138
 30
0.0
 11
21.73732577612412
 21
-91.523205552138
 31
0.0
  0
LINE
  5
318
330
1F
100
AcDbEntity
  8
1
  6
Continuous
 62
     7
100
AcDbLine
 10
-3.26267422387599
 20
-86.523205552138
 30
0.0
 11
180.737325776124
 21
-86.523205552138
 31
0.0
  0
LINE
  5
319
330
1F
100
AcDbEntity
  8
1
  6
Continuous
 62
     7
100
AcDbLine
 10
3.73732577612401
 20
-91.523205552138
 30
0.0
 11
3.73732577612401
 21
-86.523205552138
 31
0.0
  0
LINE
  5
31A
330
1F
100
AcDbEntity
  8
1
  6
Continuous
 62
     7
100
AcDbLine
 10
21.73732577612412
 20
-91.523205552138
 30
0.0
 11
21.73732577612412
 21
-86.523205552138
 31
0.0
  0
LINE
  5
31B
330
1F
100
AcDbEntity
  8
1
  6
Continuous
 62
     7
100
AcDbLine
 10
-3.26267422387599
 20
-81.523205552138
 30
0.0
 11
180.737325776124
 21
-81.523205552138
 31
0.0
  0
LINE
  5
31C
330
1F
100
AcDbEntity
  8
1
  6
Continuous
 62
     7
100
AcDbLine
 10
3.73732577612401
 20
-86.523205552138
 30
0.0
 11
3.73732577612401
 21
-81.523205552138
 31
0.0
  0
LINE
  5
31D
330
1F
100
AcDbEntity
  8
1
  6
Continuous
 62
     7
100
AcDbLine
 10
21.73732577612412
 20
-86.523205552138
 30
0.0
 11
21.73732577612412
 21
-81.523205552138
 31
0.0
  0
LINE
  5
31E
330
1F
100
AcDbEntity
  8
1
  6
Continuous
 62
     7
100
AcDbLine
 10
-106.2626742238762
 20
67.476794447862
 30
0.0
 11
-106.2626742238762
 21
-116.523205552138
 31
0.0
  0
LINE
  5
31F
330
1F
100
AcDbEntity
  8
1
  6
Continuous
 62
     7
100
AcDbLine
 10
-3.26267422387599
 20
-101.523205552138
 30
0.0
 11
180.737325776124
 21
-101.523205552138
 31
0.0
  0
LINE
  5
320
330
1F
100
AcDbEntity
  8
1
  6
Continuous
 62
     7
100
AcDbLine
 10
-3.26267422387599
 20
-116.5232055521381
 30
0.0
 11
-3.26267422387599
 21
-81.523205552138
 31
0.0
  0
ARC
  5
321
330
1F
100
AcDbEntity
  8
0
  6
Continuous
 62
     7
100
AcDbCircle
 10
120.3261685416299
 20
25.1
 30
0.0
 40
2.0
100
AcDbArc
 50
0.0
 51
90.0
  0
ARC
  5
322
330
1F
100
AcDbEntity
  8
0
  6
Continuous
 62
     7
100
AcDbCircle
 10
112.8601819369332
 20
56.1
 30
0.0
 40
1.0
100
AcDbArc
 50
0.0
 51
90.0
  0
ARC
  5
323
330
1F
100
AcDbEntity
  8
0
  6
Continuous
 62
     7
100
AcDbCircle
 10
112.8601819369332
 20
46.1
 30
0.0
 40
1.0
100
AcDbArc
 50
270.0
 51
0.0
  0
ARC
  5
324
330
1F
100
AcDbEntity
  8
0
  6
Continuous
 62
     7
100
AcDbCircle
 10
81.40625640980619
 20
25.1
 30
0.0
 40
2.0
100
AcDbArc
 50
90.0
 51
180.0
  0
ARC
  5
325
330
1F
100
AcDbEntity
  8
0
  6
Continuous
 62
     7
100
AcDbCircle
 10
123.8662124757181
 20
-42.5
 30
0.0
 40
1.5
100
AcDbArc
 50
180.0
 51
270.0
  0
ARC
  5
326
330
1F
100
AcDbEntity
  8
0
  6
Continuous
 62
     7
100
AcDbCircle
 10
123.8662124757181
 20
-50.30000000000001
 30
0.0
 40
1.5
100
AcDbArc
 50
90.0
 51
180.0
  0
ARC
  5
327
330
1F
100
AcDbEntity
  8
0
  6
Continuous
 62
     7
100
AcDbCircle
 10
77.86621247571807
 20
-50.30000000000001
 30
0.0
 40
1.5
100
AcDbArc
 50
0.0
 51
90.0
  0
ARC
  5
328
330
1F
100
AcDbEntity
  8
0
  6
Continuous
 62
     7
100
AcDbCircle
 10
77.86621247571807
 20
-42.5
 30
0.0
 40
1.5
100
AcDbArc
 50
270.0
 51
0.0
  0
ARC
  5
329
330
1F
100
AcDbEntity
  8
0
  6
Continuous
 62
     7
100
AcDbCircle
 10
-55.61690743608956
 20
5.85
 30
0.0
 40
0.4249999999999676
100
AcDbArc
 50
119.9816393688405
 51
240.0183606311471
  0
ARC
  5
32A
330
1F
100
AcDbEntity
  8
0
  6
Continuous
 62
     7
100
AcDbCircle
 10
-59.86704628641965
 20
9.1
 30
0.0
 40
1.999999999999998
100
AcDbArc
 50
90.0
 51
180.0
  0
ARC
  5
32B
330
1F
100
AcDbEntity
  8
0
  6
Continuous
 62
     7
100
AcDbCircle
 10
-55.61690743608956
 20
5.85
 30
0.0
 40
0.1250000000000136
100
AcDbArc
 50
119.981639368847
 51
240.018360631151
  0
ARC
  5
32C
330
1F
100
AcDbEntity
  8
0
  6
Continuous
 62
     7
100
AcDbCircle
 10
-59.86704628641965
 20
-1.9
 30
0.0
 40
2.0
100
AcDbArc
 50
180.0
 51
270.0
  0
ARC
  5
32D
330
1F
100
AcDbEntity
  8
0
  6
Continuous
 62
     7
100
AcDbCircle
 10
-51.11704628641965
 20
4.1775158610245
 30
0.0
 40
0.5
100
AcDbArc
 50
180.0
 51
240.0183606311482
  0
ARC
  5
32E
330
1F
100
AcDbEntity
  8
0
  6
Continuous
 62
     7
100
AcDbCircle
 10
-52.36704628641965
 20
7.08995204320251
 30
0.0
 40
0.25
100
AcDbArc
 50
0.0
 51
180.0
  0
ARC
  5
32F
330
1F
100
AcDbEntity
  8
0
  6
Continuous
 62
     7
100
AcDbCircle
 10
-52.36704628641965
 20
4.6100479567975
 30
0.0
 40
0.25
100
AcDbArc
 50
180.0
 51
0.0
  0
ARC
  5
330
330
1F
100
AcDbEntity
  8
0
  6
Continuous
 62
     7
100
AcDbCircle
 10
-51.36704628641965
 20
7.66687512012558
 30
0.0
 40
0.25
100
AcDbArc
 50
0.0
 51
180.0
  0
ARC
  5
331
330
1F
100
AcDbEntity
  8
0
  6
Continuous
 62
     7
100
AcDbCircle
 10
-50.41832162706326
 20
8.27341298402595
 30
0.0
 40
0.1987246593565435
100
AcDbArc
 50
29.99999999998927
 51
180.0
  0
ARC
  5
332
330
1F
100
AcDbEntity
  8
0
  6
Continuous
 62
     7
100
AcDbCircle
 10
-50.36704628641976
 20
4.6106888044747
 30
0.0
 40
0.25
100
AcDbArc
 50
180.0
 51
0.0
  0
ARC
  5
333
330
1F
100
AcDbEntity
  8
0
  6
Continuous
 62
     7
100
AcDbCircle
 10
-49.61704628641976
 20
3.023509495259
 30
0.0
 40
0.2499999999999087
100
AcDbArc
 50
240.0183606311636
 51
60.01836063113554
  0
ARC
  5
334
330
1F
100
AcDbEntity
  8
0
  6
Continuous
 62
     7
100
AcDbCircle
 10
-49.36704628641976
 20
6.1
 30
0.0
 40
0.1249999999999487
100
AcDbArc
 50
210.0000000000136
 51
330.0000000000321
  0
ARC
  5
335
330
1F
100
AcDbEntity
  8
0
  6
Continuous
 62
     7
100
AcDbCircle
 10
-48.36704628641976
 20
3.4562018029513
 30
0.0
 40
0.25
100
AcDbArc
 50
180.0
 51
0.0
  0
ARC
  5
336
330
1F
100
AcDbEntity
  8
0
  6
Continuous
 62
     7
100
AcDbCircle
 10
-48.31577094577606
 20
8.27341298402595
 30
0.0
 40
0.1987246593565004
100
AcDbArc
 50
0.0
 51
150.0000000000107
  0
ARC
  5
337
330
1F
100
AcDbEntity
  8
0
  6
Continuous
 62
     7
100
AcDbCircle
 10
-47.36704628641976
 20
4.0331248798744
 30
0.0
 40
0.25
100
AcDbArc
 50
180.0
 51
299.9816393688757
  0
ARC
  5
338
330
1F
100
AcDbEntity
  8
0
  6
Continuous
 62
     7
100
AcDbCircle
 10
-47.36704628641976
 20
7.66687512012558
 30
0.0
 40
0.2500000000000431
100
AcDbArc
 50
60.01836063112877
 51
180.0
  0
ARC
  5
339
330
1F
100
AcDbEntity
  8
0
  6
Continuous
 62
     7
100
AcDbCircle
 10
-65.41311221410656
 20
54.6
 30
0.0
 40
2.5
100
AcDbArc
 50
90.0
 51
180.0
  0
ARC
  5
33A
330
1F
100
AcDbEntity
  8
0
  6
Continuous
 62
     7
100
AcDbCircle
 10
-65.41311221410656
 20
47.6
 30
0.0
 40
2.5
100
AcDbArc
 50
180.0
 51
270.0
  0
ARC
  5
33B
330
1F
100
AcDbEntity
  8
0
  6
Continuous
 62
     7
100
AcDbCircle
 10
25.58688778589344
 20
47.6
 30
0.0
 40
2.5
100
AcDbArc
 50
270.0
 51
0.0
  0
ARC
  5
33C
330
1F
100
AcDbEntity
  8
0
  6
Continuous
 62
     7
100
AcDbCircle
 10
25.58688778589344
 20
54.6
 30
0.0
 40
2.5
100
AcDbArc
 50
0.0
 51
90.0
  0
ARC
  5
33D
330
1F
100
AcDbEntity
  8
0
  6
Continuous
 62
     7
100
AcDbCircle
 10
-70.82700235233153
 20
25.1
 30
0.0
 40
2.0
100
AcDbArc
 50
90.0
 51
180.0
  0
ARC
  5
33E
330
1F
100
AcDbEntity
  8
0
  6
Continuous
 62
     7
100
AcDbCircle
 10
-38.86704628641966
 20
-1.9
 30
0.0
 40
2.0
100
AcDbArc
 50
270.0
 51
0.0
  0
ARC
  5
33F
330
1F
100
AcDbEntity
  8
0
  6
Continuous
 62
     7
100
AcDbCircle
 10
-46.36704628641976
 20
4.6100479567975
 30
0.0
 40
0.2500000000000961
100
AcDbArc
 50
299.9816393688642
 51
119.9816393688363
  0
ARC
  5
340
330
1F
100
AcDbEntity
  8
0
  6
Continuous
 62
     7
100
AcDbCircle
 10
-38.86704628641966
 20
9.1
 30
0.0
 40
2.0
100
AcDbArc
 50
0.0
 51
90.0
  0
ARC
  5
341
330
1F
100
AcDbEntity
  8
0
  6
Continuous
 62
     7
100
AcDbCircle
 10
31.00565389897622
 20
25.1
 30
0.0
 40
2.0
100
AcDbArc
 50
0.0
 51
90.0
  0
ARC
  5
342
330
1F
100
AcDbEntity
  8
0
  6
Continuous
 62
     7
100
AcDbCircle
 10
-46.36704628641976
 20
7.08995204320251
 30
0.0
 40
0.2499999999999529
100
AcDbArc
 50
240.0183606311695
 51
60.01836063112877
  0
ARC
  5
343
330
1F
100
AcDbEntity
  8
0
  6
Continuous
 62
     7
100
AcDbCircle
 10
-46.36704628641976
 20
5.85
 30
0.0
 40
0.25
100
AcDbArc
 50
270.0
 51
90.0
  0
ARC
  5
344
330
1F
100
AcDbEntity
  8
0
  6
Continuous
 62
     7
100
AcDbCircle
 10
-43.11718513674975
 20
5.85
 30
0.0
 40
0.4250000000000373
100
AcDbArc
 50
299.9816393688649
 51
60.0183606311371
  0
ARC
  5
345
330
1F
100
AcDbEntity
  8
0
  6
Continuous
 62
     7
100
AcDbCircle
 10
-43.11718513674975
 20
5.85
 30
0.0
 40
0.1249999999999988
100
AcDbArc
 50
299.9816393688434
 51
60.01836063115865
  0
ARC
  5
346
102
{ACAD_REACTORS
330
397
102
}
330
1F
100
AcDbEntity
  8
1
  6
Continuous
 62
     7
100
AcDbCircle
 10
166.0119260106753
 20
-105.7919882401034
 30
0.0
 40
0.2649662124752756
100
AcDbArc
 50
30.00000000001556
 51
180.0
  0
ARC
  5
347
102
{ACAD_REACTORS
330
397
102
}
330
1F
100
AcDbEntity
  8
1
  6
Continuous
 62
     7
100
AcDbCircle
 10
166.0802931315333
 20
-110.6756204795051
 30
0.0
 40
0.333333333333286
100
AcDbArc
 50
180.0
 51
0.0
  0
ARC
  5
348
102
{ACAD_REACTORS
330
397
102
}
330
1F
100
AcDbEntity
  8
1
  6
Continuous
 62
     7
100
AcDbCircle
 10
168.7469597982001
 20
-112.2149364815362
 30
0.0
 40
0.3333333333333997
100
AcDbArc
 50
180.0
 51
0.0
  0
ARC
  5
349
102
{ACAD_REACTORS
330
397
102
}
330
1F
100
AcDbEntity
  8
1
  6
Continuous
 62
     7
100
AcDbCircle
 10
168.815326919058
 20
-105.7919882401034
 30
0.0
 40
0.2649662124752865
100
AcDbArc
 50
0.0
 51
149.9999999999752
  0
ARC
  5
34A
102
{ACAD_REACTORS
330
398
102
}
330
1F
100
AcDbEntity
  8
1
  6
Continuous
 62
     7
100
AcDbCircle
 10
164.7469597982
 20
-106.6007053919706
 30
0.0
 40
0.333333333333286
100
AcDbArc
 50
0.0
 51
180.0
  0
ARC
  5
34B
102
{ACAD_REACTORS
330
398
102
}
330
1F
100
AcDbEntity
  8
1
  6
Continuous
 62
     7
100
AcDbCircle
 10
167.0802931315333
 20
-112.7918595584593
 30
0.0
 40
0.333333333333369
100
AcDbArc
 50
240.0183606311548
 51
60.01836063114937
  0
ARC
  5
34C
102
{ACAD_REACTORS
330
399
102
}
330
1F
100
AcDbEntity
  8
1
  6
Continuous
 62
     7
100
AcDbCircle
 10
163.4136264648667
 20
-107.3699361612013
 30
0.0
 40
0.3333333333333144
100
AcDbArc
 50
0.0
 51
180.0
  0
ARC
  5
34D
102
{ACAD_REACTORS
330
399
102
}
330
1F
100
AcDbEntity
  8
1
  6
Continuous
 62
     7
100
AcDbCircle
 10
163.4136264648667
 20
-110.6764749430748
 30
0.0
 40
0.3333333333333997
100
AcDbArc
 50
180.0
 51
0.0
  0
ARC
  5
34E
102
{ACAD_REACTORS
330
39A
102
}
330
1F
100
AcDbEntity
  8
1
  6
Continuous
 62
     7
100
AcDbCircle
 10
171.4136264648667
 20
-107.3699361612013
 30
0.0
 40
0.333333333333369
100
AcDbArc
 50
240.0183606311548
 51
60.01836063114921
  0
ARC
  5
34F
102
{ACAD_REACTORS
330
39A
102
}
330
1F
100
AcDbEntity
  8
1
  6
Continuous
 62
     7
100
AcDbCircle
 10
171.4136264648667
 20
-109.023205552138
 30
0.0
 40
0.3333333333333997
100
AcDbArc
 50
270.0
 51
90.0
  0
ARC
  5
350
102
{ACAD_REACTORS
330
39A
102
}
330
1F
100
AcDbEntity
  8
1
  6
Continuous
 62
     7
100
AcDbCircle
 10
171.4136264648667
 20
-110.6764749430748
 30
0.0
 40
0.3333333333333264
100
AcDbArc
 50
299.9816393688325
 51
119.9816393688379
  0
CIRCLE
  5
351
330
1F
100
AcDbEntity
  8
0
  6
Continuous
 62
     7
100
AcDbCircle
 10
-61.91311221410656
 20
51.1
 30
0.0
 40
4.25
  0
CIRCLE
  5
352
330
1F
100
AcDbEntity
  8
0
  6
Continuous
 62
     7
100
AcDbCircle
 10
22.08688778589342
 20
51.1
 30
0.0
 40
4.25
  0
CIRCLE
  5
353
330
1F
100
AcDbEntity
  8
0
  6
Continuous
 62
     7
100
AcDbCircle
 10
-57.11704628641965
 20
-46.4
 30
0.0
 40
3.899999999999999
  0
CIRCLE
  5
354
330
1F
100
AcDbEntity
  8
0
  6
Continuous
 62
     7
100
AcDbCircle
 10
-57.11704628641965
 20
-46.4
 30
0.0
 40
2.399999999999999
  0
CIRCLE
  5
355
330
1F
100
AcDbEntity
  8
0
  6
Continuous
 62
     7
100
AcDbCircle
 10
17.38295371358036
 20
-46.4
 30
0.0
 40
3.899999999999991
  0
CIRCLE
  5
356
330
1F
100
AcDbEntity
  8
0
  6
Continuous
 62
     7
100
AcDbCircle
 10
17.38295371358036
 20
-46.4
 30
0.0
 40
2.399999999999991
  0
SPLINE
  5
357
330
1F
100
AcDbEntity
  8
0
  6
Continuous
 62
     7
100
AcDbSpline
210
0.0
220
0.0
230
1.0
 70
     8
 71
     3
 72
    11
 73
     7
 74
     5
 42
0.000000001
 43
0.0000000001
 44
0.00000001
 40
0.0
 40
0.0
 40
0.0
 40
0.0
 40
1.015556930134716
 40
2.01814823202376
 40
3.004355156430171
 40
3.971811055931519
 40
3.971811055931519
 40
3.971811055931519
 40
3.971811055931519
 10
-70.98732995734986
 20
15.1
 30
0.0
 10
-70.68426650849777
 20
15.25185831427376
 30
0.0
 10
-70.0820088194915
 20
15.55363615223619
 30
0.0
 10
-69.12568391305476
 20
15.86099722085046
 30
0.0
 10
-68.157355237301
 20
16.06222167619444
 30
0.0
 10
-67.50560738146898
 20
16.08748806494175
 30
0.0
 10
-67.18286115245087
 20
16.10000000000003
 30
0.0
 11
-70.98732995734986
 21
15.1
 31
0.0
 11
-70.06797402274167
 21
15.53144008248238
 31
0.0
 11
-69.1157985699304
 21
15.84536878161605
 31
0.0
 11
-68.14820115593577
 21
16.03605004651568
 31
0.0
 11
-67.18286115245087
 21
16.10000000000003
 31
0.0
  0
SPLINE
  5
358
330
1F
100
AcDbEntity
  8
0
  6
Continuous
 62
     7
100
AcDbSpline
210
0.0
220
0.0
230
1.0
 70
     8
 71
     3
 72
    11
 73
     7
 74
     5
 42
0.000000001
 43
0.0000000001
 44
0.00000001
 40
0.0
 40
0.0
 40
0.0
 40
0.0
 40
0.9476047842036553
 40
1.875678942849948
 40
2.786028558679633
 40
3.681891196626206
 40
3.681891196626206
 40
3.681891196626206
 40
3.681891196626206
 10
-72.31619448578415
 20
-16.9
 30
0.0
 10
-72.63241192382064
 20
-16.88806308475894
 30
0.0
 10
-73.2583293935005
 20
-16.86443526547482
 30
0.0
 10
-74.16936392229668
 20
-16.66558226201903
 30
0.0
 10
-75.03285910149555
 20
-16.3598372103998
 30
0.0
 10
-75.55204255036494
 20
-16.0524572799218
 30
0.0
 10
-75.80955217957215
 20
-15.9
 30
0.0
 11
-72.31619448578415
 21
-16.9
 31
0.0
 11
-73.26163894818505
 21
-16.83605004651568
 31
0.0
 11
-74.16991330198873
 21
-16.64536878161605
 31
0.0
 11
-75.02442204840285
 21
-16.33144008248238
 31
0.0
 11
-75.80955217957215
 21
-15.9
 31
0.0
  0
SPLINE
  5
359
330
1F
100
AcDbEntity
  8
0
  6
Continuous
 62
     7
100
AcDbSpline
210
0.0
220
0.0
230
1.0
 70
     8
 71
     3
 72
    11
 73
     7
 74
     5
 42
0.000000001
 43
0.0000000001
 44
0.00000001
 40
0.0
 40
0.0
 40
0.0
 40
0.0
 40
0.8951168518331083
 40
1.805000438245796
 40
2.732944578699349
 40
3.680782053420863
 40
3.680782053420863
 40
3.680782053420863
 40
3.680782053420863
 10
36.06265499741394
 20
-15.9
 30
0.0
 10
35.80543614238549
 20
-16.05246388986775
 30
0.0
 10
35.2867550881254
 20
-16.35990685183893
 30
0.0
 10
34.42370901306511
 20
-16.66562875735742
 30
0.0
 10
33.51279333750992
 20
-16.86445630408277
 30
0.0
 10
32.88684027292559
 20
-16.88806863395097
 30
0.0
 10
32.57054451209075
 20
-16.9
 30
0.0
 11
36.06265499741394
 21
-15.9
 31
0.0
 11
35.27837594296782
 21
-16.33144008248233
 31
0.0
 11
34.42436369745568
 21
-16.64536878161599
 31
0.0
 11
33.5162221965686
 21
-16.83605004651563
 31
0.0
 11
32.57054451209075
 21
-16.9
 31
0.0
  0
SPLINE
  5
35A
330
1F
100
AcDbEntity
  8
0
  6
Continuous
 62
     7
100
AcDbSpline
210
0.0
220
0.0
230
1.0
 70
     8
 71
     3
 72
    11
 73
     7
 74
     5
 42
0.000000001
 43
0.0000000001
 44
0.00000001
 40
0.0
 40
0.0
 40
0.0
 40
0.0
 40
0.9680496350879313
 40
1.955184703779938
 40
2.958991373806569
 40
3.975987831975522
 40
3.975987831975522
 40
3.975987831975522
 40
3.975987831975522
 10
27.34385798138104
 20
16.09999999999998
 30
0.0
 10
27.66680132598846
 20
16.08748337257173
 30
0.0
 10
28.31905495390259
 20
16.06220333311093
 30
0.0
 10
29.28830810092683
 20
15.86096172403236
 30
0.0
 10
30.2458727235414
 20
15.55359269524153
 30
0.0
 10
30.84913663969305
 20
15.25185405264118
 30
0.0
 10
31.15273734735331
 20
15.09999999999996
 30
0.0
 11
27.34385798138104
 21
16.09999999999998
 31
0.0
 11
28.30979302104169
 21
16.03605004651562
 31
0.0
 11
29.27833641277178
 21
15.84536878161599
 31
0.0
 11
30.23179150091212
 21
15.53144008248232
 31
0.0
 11
31.15273734735331
 21
15.09999999999996
 31
0.0
  0
ARC
  5
35B
102
{ACAD_REACTORS
330
397
102
}
330
1F
100
AcDbEntity
  8
1
  6
Continuous
 62
     7
100
AcDbCircle
 10
167.4136264648667
 20
-108.6898722188047
 30
0.0
 40
0.1666666666667294
100
AcDbArc
 50
209.9999999999744
 51
330.000000000011
  0
ARC
  5
35C
102
{ACAD_REACTORS
330
398
102
}
330
1F
100
AcDbEntity
  8
1
  6
Continuous
 62
     7
100
AcDbCircle
 10
165.0802931315333
 20
-111.2531844041053
 30
0.0
 40
0.6666666666666003
100
AcDbArc
 50
180.0000000000086
 51
240.0183606311605
  0
ARC
  5
35D
330
1F
100
AcDbEntity
  8
1
  6
Continuous
 62
     7
100
AcDbCircle
 10
159.0804782653068
 20
-109.023205552138
 30
0.0
 40
0.1666666666665927
100
AcDbArc
 50
119.9816393689029
 51
240.0183606311167
  0
ARC
  5
35E
330
1F
100
AcDbEntity
  8
1
  6
Continuous
 62
     7
100
AcDbCircle
 10
175.7467746644266
 20
-109.023205552138
 30
0.0
 40
0.1666666666666485
100
AcDbArc
 50
299.9816393688579
 51
60.01836063112252
  0
ARC
  5
35F
102
{ACAD_REACTORS
330
39A
102
}
330
1F
100
AcDbEntity
  8
1
  6
Continuous
 62
     7
100
AcDbCircle
 10
170.0802931315333
 20
-106.6007053919706
 30
0.0
 40
0.3333333333333832
100
AcDbArc
 50
60.0183606311506
 51
180.0
  0
ARC
  5
360
102
{ACAD_REACTORS
330
39A
102
}
330
1F
100
AcDbEntity
  8
1
  6
Continuous
 62
     7
100
AcDbCircle
 10
170.0802931315333
 20
-111.4457057123054
 30
0.0
 40
0.3333333333332007
100
AcDbArc
 50
180.0
 51
299.9816393688494
  0
MTEXT
  5
362
330
1F
100
AcDbEntity
  8
1
 62
     7
100
AcDbMText
 10
40.2373257761237
 20
72.47679444786212
 30
0.0
 40
4.0
 41
0.0
 71
     5
 72
     1
  1
Diritti riservati      All rights reserved
  7
CONVERTER_11
 73
     1
 44
1.32052821128451
  0
MTEXT
  5
363
330
1F
100
AcDbEntity
  8
1
 62
     7
100
AcDbMText
 10
-1.26267422387599
 20
-105.262566131382
 30
0.0
 40
3.0
 41
0.0
 71
     4
 72
     1
  1
Date
  7
CONVERTER_11
 73
     1
 44
1.32052821128451
  0
MTEXT
  5
364
330
1F
100
AcDbEntity
  8
1
 62
     7
100
AcDbMText
 10
9.337325776124
 20
-105.262566131382
 30
0.0
 40
3.0
 41
0.0
 71
     4
 72
     1
  1
02/09/08
  7
CONVERTER_11
 73
     1
 44
1.32052821128451
  0
MTEXT
  5
365
330
1F
100
AcDbEntity
  8
1
 62
     7
100
AcDbMText
 10
-1.26267422387599
 20
-112.773205552138
 30
0.0
 40
3.0
 41
0.0
 71
     4
 72
     1
  1
Sign.
  7
CONVERTER_11
 73
     1
 44
1.32052821128451
  0
MTEXT
  5
366
330
1F
100
AcDbEntity
  8
1
 62
     7
100
AcDbMText
 10
9.337325776124
 20
-112.773205552138
 30
0.0
 40
3.0
 41
0.0
 71
     4
 72
     1
  1
T.Tedeschi
  7
CONVERTER_11
 73
     1
 44
1.32052821128451
  0
MTEXT
  5
367
330
1F
100
AcDbEntity
  8
1
 62
     7
100
AcDbMText
 10
33.01362646486672
 20
-109.023205552138
 30
0.0
 40
4.5
 41
0.0
 71
     4
 72
     1
  1
CAN 24\P__________________________
  7
CONVERTER_11
 73
     1
 44
0.90036014405762
  0
MTEXT
  5
368
330
1F
100
AcDbEntity
  8
1
 62
     7
100
AcDbMText
 10
145.4136264648667
 20
-105.262566131382
 30
0.0
 40
3.0
 41
0.0
 71
     5
 72
     1
  1
Scale
  7
CONVERTER_11
 73
     1
 44
1.32052821128451
  0
MTEXT
  5
369
330
1F
100
AcDbEntity
  8
1
 62
     7
100
AcDbMText
 10
145.4136264648667
 20
-111.462566131382
 30
0.0
 40
4.5
 41
0.0
 71
     5
 72
     1
  1
1:1
  7
CONVERTER_11
 73
     1
 44
1.32052821128451
  0
DIMENSION
  5
375
330
1F
100
AcDbEntity
  8
1
100
AcDbDimension
  2
*D1
 10
72.86621247571807
 20
-75.9437456144617
 30
0.0
 11
100.8662124757181
 21
-72.4437456144617
 31
0.0
 70
    32
  1
<>
 71
     5
 42
-1.0
 53
0.00013888888889
  3
ME10_DIM_10
100
AcDbAlignedDimension
 13
128.8662124757181
 23
-48.8
 33
0.0
 14
72.86621247571807
 24
-48.8
 34
0.0
100
AcDbRotatedDimension
  0
DIMENSION
  5
380
330
1F
100
AcDbEntity
  8
1
100
AcDbDimension
  2
*D2
 10
79.36621247571807
 20
-65.4076841412671
 30
0.0
 11
100.8662124757181
 21
-61.9076841412671
 31
0.0
 70
    32
  1
<>
 71
     5
 42
-1.0
 53
0.00013888888889
  3
ME10_DIM_11
100
AcDbAlignedDimension
 13
122.3662124757181
 23
-52.9
 33
0.0
 14
79.36621247571807
 24
-52.9
 34
0.0
100
AcDbRotatedDimension
  0
DIMENSION
  5
38B
330
1F
100
AcDbEntity
  8
1
100
AcDbDimension
  2
*D3
 10
147.798633956032
 20
57.1
 30
0.0
 11
144.298633956032
 21
2.1
 31
0.0
 70
    32
  1
<>max.
 71
     5
 42
-1.0
 53
90.0
  3
ME10_DIM_12
100
AcDbAlignedDimension
 13
122.3662124757181
 23
-52.9
 33
0.0
 14
112.8601819369332
 24
57.1
 34
0.0
 50
90.0
100
AcDbRotatedDimension
  0
DIMENSION
  5
396
330
1F
100
AcDbEntity
  8
1
100
AcDbDimension
  2
*D4
 10
-79.86704628641965
 20
-65.4076841412671
 30
0.0
 11
-19.86704628641965
 21
-61.9076841412671
 31
0.0
 70
    32
  1
<>
 71
     5
 42
-1.0
 53
0.00013888888889
  3
ME10_DIM_13
100
AcDbAlignedDimension
 13
40.13295371358035
 23
-52.9
 33
0.0
 14
-79.86704628641965
 24
-52.9
 34
0.0
100
AcDbRotatedDimension
  0
HATCH
  5
397
330
1F
100
AcDbEntity
  8
1
  6
Continuous
 62
     7
100
AcDbHatch
 10
0.0
 20
0.0
 30
0.0
210
0.0
220
0.0
230
1.0
  2
SOLID
 70
     1
 71
     1
 91
        1
 92
        1
 93
       16
 72
     2
 10
166.0119260106753
 20
-105.7919882401034
 40
0.2649662124752756
 50
30.00000000001556
 51
180.0
 73
     1
 72
     1
 10
165.7469597982
 20
-105.7919882401034
 11
165.7469597982
 21
-109.023205552138
 72
     1
 10
165.7469597982
 20
-109.023205552138
 11
165.7469597982
 21
-110.6756204795051
 72
     2
 10
166.0802931315333
 20
-110.6756204795051
 40
0.333333333333286
 50
180.0
 51
360.0
 73
     1
 72
     1
 10
166.4136264648667
 20
-110.6756204795051
 11
166.4136264648667
 21
-109.023205552138
 72
     1
 10
166.4136264648667
 20
-109.023205552138
 11
166.4136264648667
 21
-107.2911547445692
 72
     1
 10
166.4136264648667
 20
-107.2911547445692
 11
167.2692888975692
 21
-108.773205552138
 72
     2
 10
167.4136264648667
 20
-108.6898722188047
 40
0.1666666666667294
 50
209.9999999999744
 51
330.000000000011
 73
     1
 72
     1
 10
167.5579640321641
 20
-108.773205552138
 11
168.4136264648667
 21
-107.2911547445692
 72
     1
 10
168.4136264648667
 20
-107.2911547445692
 11
168.4136264648667
 21
-109.023205552138
 72
     1
 10
168.4136264648667
 20
-109.023205552138
 11
168.4136264648667
 21
-112.2149364815362
 72
     2
 10
168.7469597982001
 20
-112.2149364815362
 40
0.3333333333333997
 50
180.0
 51
360.0
 73
     1
 72
     1
 10
169.0802931315333
 20
-112.2149364815362
 11
169.0802931315333
 21
-105.7919882401034
 72
     2
 10
168.815326919058
 20
-105.7919882401034
 40
0.2649662124752865
 50
0.0
 51
149.9999999999752
 73
     1
 72
     1
 10
168.58585944791
 20
-105.6595051338657
 11
167.4136264648667
 21
-107.6898722188047
 72
     1
 10
167.4136264648667
 20
-107.6898722188047
 11
166.2413934818234
 21
-105.6595051338657
 97
       16
330
302
330
349
330
301
330
348
330
300
330
2F4
330
2F5
330
35B
330
2F6
330
2F7
330
2FF
330
347
330
2FE
330
2FC
330
346
330
2FD
 75
     0
 76
     1
 98
        1
 10
0.0
 20
0.0
  0
HATCH
  5
398
330
1F
100
AcDbEntity
  8
1
  6
Continuous
 62
     7
100
AcDbHatch
 10
0.0
 20
0.0
 30
0.0
210
0.0
220
0.0
230
1.0
  2
SOLID
 70
     1
 71
     1
 91
        1
 92
        1
 93
        7
 72
     1
 10
165.0802931315333
 20
-106.6007053919706
 11
165.0802931315333
 21
-111.2531844041053
 72
     1
 10
165.0802931315333
 20
-111.2531844041053
 11
167.2468672826965
 21
-112.5031310297764
 72
     2
 10
167.0802931315333
 20
-112.7918595584593
 40
0.333333333333369
 50
299.9816393688506
 51
479.9816393688452
 73
     0
 72
     1
 10
166.9137189803701
 20
-113.0805880871422
 11
164.747144829207
 21
-111.8306414614711
 72
     2
 10
165.0802931315333
 20
-111.2531844041053
 40
0.6666666666666003
 50
119.9816393688395
 51
179.9999999999914
 73
     0
 72
     1
 10
164.4136264648667
 20
-111.2531844041054
 11
164.4136264648667
 21
-106.6007053919706
 72
     2
 10
164.7469597982
 20
-106.6007053919706
 40
0.333333333333286
 50
180.0
 51
360.0
 73
     0
 97
        7
330
304
330
305
330
34B
330
306
330
35C
330
303
330
34A
 75
     0
 76
     1
 98
        1
 10
0.0
 20
0.0
  0
HATCH
  5
399
330
1F
100
AcDbEntity
  8
1
  6
Continuous
 62
     7
100
AcDbHatch
 10
0.0
 20
0.0
 30
0.0
210
0.0
220
0.0
230
1.0
  2
SOLID
 70
     1
 71
     1
 91
        1
 92
        1
 93
        5
 72
     1
 10
163.7469597982
 20
-107.3699361612013
 11
163.7469597982
 21
-110.4839536348747
 72
     1
 10
163.7469597982
 20
-110.4839536348747
 11
163.7469597982
 21
-110.6764749430748
 72
     2
 10
163.4136264648667
 20
-110.6764749430748
 40
0.3333333333333997
 50
0.0
 51
180.0
 73
     0
 72
     1
 10
163.0802931315333
 20
-110.6764749430748
 11
163.0802931315333
 21
-107.3699361612013
 72
     2
 10
163.4136264648667
 20
-107.3699361612013
 40
0.3333333333333144
 50
180.0
 51
360.0
 73
     0
 97
        5
330
307
330
308
330
34D
330
309
330
34C
 75
     0
 76
     1
 98
        1
 10
0.0
 20
0.0
  0
HATCH
  5
39A
330
1F
100
AcDbEntity
  8
1
  6
Continuous
 62
     7
100
AcDbHatch
 10
0.0
 20
0.0
 30
0.0
210
0.0
220
0.0
230
1.0
  2
SOLID
 70
     1
 71
     1
 91
        1
 92
        1
 93
       14
 72
     1
 10
171.2470523137035
 20
-107.6586646898842
 11
170.4136264648667
 21
-107.1778420847861
 72
     1
 10
170.4136264648667
 20
-107.1778420847861
 11
170.4136264648667
 21
-108.6898722188047
 72
     1
 10
170.4136264648667
 20
-108.6898722188047
 11
171.4136264648667
 21
-108.6898722188047
 72
     2
 10
171.4136264648667
 20
-109.023205552138
 40
0.3333333333333997
 50
270.0
 51
450.0
 73
     0
 72
     1
 10
171.4136264648667
 20
-109.3565388854714
 11
170.4136264648667
 21
-109.3565388854714
 72
     1
 10
170.4136264648667
 20
-109.3565388854714
 11
170.4136264648667
 21
-110.8685690194901
 72
     1
 10
170.4136264648667
 20
-110.8685690194901
 11
171.2470523137035
 21
-110.3877464143918
 72
     2
 10
171.4136264648667
 20
-110.6764749430748
 40
0.3333333333333264
 50
240.0183606311622
 51
420.0183606311675
 73
     0
 72
     1
 10
171.5802006160298
 20
-110.9652034717577
 11
170.2468672826965
 21
-111.7344342409883
 72
     2
 10
170.0802931315333
 20
-111.4457057123054
 40
0.3333333333332007
 50
60.01836063115061
 51
180.0
 73
     0
 72
     1
 10
169.7469597982001
 20
-111.4457057123054
 11
169.7469597982001
 21
-106.6007053919706
 72
     2
 10
170.0802931315333
 20
-106.6007053919706
 40
0.3333333333333832
 50
180.0
 51
299.9816393688494
 73
     0
 72
     1
 10
170.2468672826965
 20
-106.3119768632877
 11
171.5802006160298
 21
-107.0812076325186
 72
     2
 10
171.4136264648667
 20
-107.3699361612013
 40
0.333333333333369
 50
299.9816393688508
 51
479.9816393688452
 73
     0
 97
       14
330
30A
330
35F
330
2F3
330
360
330
311
330
350
330
310
330
30F
330
30E
330
34F
330
30D
330
30C
330
30B
330
34E
 75
     0
 76
     1
 98
        1
 10
0.0
 20
0.0
  0
ENDSEC
  0
SECTION
  2
OBJECTS
  0
DICTIONARY
  5
C
330
0
100
AcDbDictionary
281
     1
  3
ACAD_GROUP
350
D
  3
ACAD_LAYOUT
350
1A
  3
ACAD_MATERIAL
350
3B
  3
ACAD_MLEADERSTYLE
350
39D
  3
ACAD_MLINESTYLE
350
17
  3
ACAD_PLOTSETTINGS
350
19
  3
ACAD_PLOTSTYLENAME
350
E
  3
ACAD_VISUALSTYLE
350
2A
  3
AcDbVariableDictionary
350
39B
  0
DICTIONARY
  5
D
102
{ACAD_REACTORS
330
C
102
}
330
C
100
AcDbDictionary
281
     1
  0
DICTIONARY
  5
1A
102
{ACAD_REACTORS
330
C
102
}
330
C
100
AcDbDictionary
281
     1
  3
Layout1
350
1E
  3
Layout2
350
26
  3
Model
350
22
  0
DICTIONARY
  5
3B
102
{ACAD_REACTORS
330
C
102
}
330
C
100
AcDbDictionary
281
     1
  3
ByBlock
350
3D
  3
ByLayer
350
3C
  3
Global
350
3E
  0
DICTIONARY
  5
39D
102
{ACAD_REACTORS
330
C
102
}
330
C
100
AcDbDictionary
281
     1
  0
DICTIONARY
  5
17
102
{ACAD_REACTORS
330
C
102
}
330
C
100
AcDbDictionary
281
     1
  3
Standard
350
18
  0
DICTIONARY
  5
19
102
{ACAD_REACTORS
330
C
102
}
330
C
100
AcDbDictionary
281
     1
  0
ACDBDICTIONARYWDFLT
  5
E
102
{ACAD_REACTORS
330
C
102
}
330
C
100
AcDbDictionary
281
     1
  3
Normal
350
F
100
AcDbDictionaryWithDefault
340
F
  0
DICTIONARY
  5
2A
102
{ACAD_REACTORS
330
C
102
}
330
C
100
AcDbDictionary
281
     1
  3
2dWireframe
350
2F
  3
3D Hidden
350
31
  3
3dWireframe
350
30
  3
Basic
350
32
  3
Brighten
350
36
  3
ColorChange
350
3A
  3
Conceptual
350
34
  3
Dim
350
35
  3
Facepattern
350
39
  3
Flat
350
2B
  3
FlatWithEdges
350
2C
  3
Gouraud
350
2D
  3
GouraudWithEdges
350
2E
  3
Linepattern
350
38
  3
Realistic
350
33
  3
Thicken
350
37
  0
DICTIONARY
  5
39B
102
{ACAD_REACTORS
330
C
102
}
330
C
100
AcDbDictionary
281
     1
  3
DIMASSOC
350
39E
  3
HIDETEXT
350
39F
  0
LAYOUT
  5
1E
102
{ACAD_REACTORS
330
1A
102
}
330
1A
100
AcDbPlotSettings
  1

  2
none_device
  4

  6

 40
0.0
 41
0.0
 42
0.0
 43
0.0
 44
0.0
 45
0.0
 46
0.0
 47
0.0
 48
0.0
 49
0.0
140
0.0
141
0.0
142
1.0
143
1.0
 70
   688
 72
     0
 73
     0
 74
     5
  7

 75
    16
147
1.0
148
0.0
149
0.0
100
AcDbLayout
  1
Layout1
 70
     1
 71
     1
 10
0.0
 20
0.0
 11
12.0
 21
9.0
 12
0.0
 22
0.0
 32
0.0
 14
1.00000000000000E+20
 24
1.00000000000000E+20
 34
1.00000000000000E+20
 15
-1.00000000000000E+20
 25
-1.00000000000000E+20
 35
-1.00000000000000E+20
146
0.0
 13
0.0
 23
0.0
 33
0.0
 16
1.0
 26
0.0
 36
0.0
 17
0.0
 27
1.0
 37
0.0
 76
     0
330
1B
  0
LAYOUT
  5
26
102
{ACAD_REACTORS
330
1A
102
}
330
1A
100
AcDbPlotSettings
  1

  2
none_device
  4

  6

 40
0.0
 41
0.0
 42
0.0
 43
0.0
 44
0.0
 45
0.0
 46
0.0
 47
0.0
 48
0.0
 49
0.0
140
0.0
141
0.0
142
1.0
143
1.0
 70
   688
 72
     0
 73
     0
 74
     5
  7

 75
    16
147
1.0
148
0.0
149
0.0
100
AcDbLayout
  1
Layout2
 70
     1
 71
     2
 10
0.0
 20
0.0
 11
0.0
 21
0.0
 12
0.0
 22
0.0
 32
0.0
 14
0.0
 24
0.0
 34
0.0
 15
0.0
 25
0.0
 35
0.0
146
0.0
 13
0.0
 23
0.0
 33
0.0
 16
1.0
 26
0.0
 36
0.0
 17
0.0
 27
1.0
 37
0.0
 76
     0
330
23
  0
LAYOUT
  5
22
102
{ACAD_REACTORS
330
1A
102
}
330
1A
100
AcDbPlotSettings
  1

  2
none_device
  4

  6

 40
0.0
 41
0.0
 42
0.0
 43
0.0
 44
0.0
 45
0.0
 46
0.0
 47
0.0
 48
0.0
 49
0.0
140
0.0
141
0.0
142
1.0
143
1.0
 70
  1712
 72
     0
 73
     0
 74
     0
  7

 75
     0
147
1.0
148
0.0
149
0.0
100
AcDbLayout
  1
Model
 70
     1
 71
     0
 10
0.0
 20
0.0
 11
12.0
 21
9.0
 12
0.0
 22
0.0
 32
0.0
 14
-111.2626742238761
 24
-121.523205552138
 34
0.0
 15
185.737325776124
 25
88.47679444786212
 35
0.0
146
0.0
 13
0.0
 23
0.0
 33
0.0
 16
1.0
 26
0.0
 36
0.0
 17
0.0
 27
1.0
 37
0.0
 76
     0
330
1F
331
29
  0
MATERIAL
  5
3D
102
{ACAD_REACTORS
330
3B
102
}
102
{ACAD_XDICTIONARY
360
3C2
102
}
330
3B
100
AcDbMaterial
  1
ByBlock
  0
MATERIAL
  5
3C
102
{ACAD_REACTORS
330
3B
102
}
102
{ACAD_XDICTIONARY
360
3C0
102
}
330
3B
100
AcDbMaterial
  1
ByLayer
  0
MATERIAL
  5
3E
102
{ACAD_REACTORS
330
3B
102
}
102
{ACAD_XDICTIONARY
360
3C4
102
}
330
3B
100
AcDbMaterial
  1
Global
  0
MLINESTYLE
  5
18
102
{ACAD_REACTORS
330
17
102
}
330
17
100
AcDbMlineStyle
  2
Standard
 70
     0
  3

 62
   256
 51
90.0
 52
90.0
 71
     2
 49
0.5
 62
   256
  6
BYLAYER
 49
-0.5
 62
   256
  6
BYLAYER
  0
ACDBPLACEHOLDER
  5
F
102
{ACAD_REACTORS
330
E
102
}
330
E
  0
VISUALSTYLE
  5
2F
102
{ACAD_REACTORS
330
2A
102
}
102
{ACAD_XDICTIONARY
360
3A8
102
}
330
2A
100
AcDbVisualStyle
  2
2dWireframe
 70
     4
 71
     0
 72
     2
 73
     0
 90
        0
 40
-0.6
 41
-30.0
 62
     5
 63
     7
 74
     1
 91
        4
 64
     7
 65
   257
 75
     1
175
     1
 42
1.0
 92
        0
 66
   257
 43
1.0
 76
     1
 77
     6
 78
     2
 67
     7
 79
     5
170
     0
171
     0
290
     0
174
     0
 93
        1
 44
0.0
173
     0
291
     0
 45
0.0
1001
ACAD
1000
AcDbSavedByObjectVersion
1070
     0
  0
VISUALSTYLE
  5
31
102
{ACAD_REACTORS
330
2A
102
}
102
{ACAD_XDICTIONARY
360
3AC
102
}
330
2A
100
AcDbVisualStyle
  2
3D Hidden
 70
     6
 71
     1
 72
     2
 73
     2
 90
        0
 40
-0.6
 41
-30.0
 62
     5
 63
     7
 74
     2
 91
        2
 64
     7
 65
   257
 75
     2
175
     1
 42
40.0
 92
        0
 66
   257
 43
1.0
 76
     1
 77
     6
 78
     2
 67
     7
 79
     3
170
     0
171
     0
290
     0
174
     0
 93
        1
 44
0.0
173
     0
291
     0
 45
0.0
1001
ACAD
1000
AcDbSavedByObjectVersion
1070
     0
  0
VISUALSTYLE
  5
30
102
{ACAD_REACTORS
330
2A
102
}
102
{ACAD_XDICTIONARY
360
3AA
102
}
330
2A
100
AcDbVisualStyle
  2
3dWireframe
 70
     5
 71
     0
 72
     2
 73
     0
 90
        0
 40
-0.6
 41
-30.0
 62
     5
 63
     7
 74
     1
 91
        4
 64
     7
 65
   257
 75
     1
175
     1
 42
1.0
 92
        0
 66
   257
 43
1.0
 76
     1
 77
     6
 78
     2
 67
     7
 79
     5
170
     0
171
     0
290
     0
174
     0
 93
        1
 44
0.0
173
     0
291
     0
 45
0.0
1001
ACAD
1000
AcDbSavedByObjectVersion
1070
     0
  0
VISUALSTYLE
  5
32
102
{ACAD_REACTORS
330
2A
102
}
102
{ACAD_XDICTIONARY
360
3AE
102
}
330
2A
100
AcDbVisualStyle
  2
Basic
 70
     7
 71
     1
 72
     0
 73
     1
 90
        0
 40
-0.6
 41
-30.0
 62
     5
 63
     7
 74
     0
 91
        4
 64
     7
 65
   257
 75
     1
175
     1
 42
1.0
 92
        8
 66
     7
 43
1.0
 76
     1
 77
     6
 78
     2
 67
     7
 79
     5
170
     0
171
     0
290
     0
174
     0
 93
        1
 44
0.0
173
     0
291
     1
 45
0.0
1001
ACAD
1000
AcDbSavedByObjectVersion
1070
     0
  0
VISUALSTYLE
  5
36
102
{ACAD_REACTORS
330
2A
102
}
102
{ACAD_XDICTIONARY
360
3B6
102
}
330
2A
100
AcDbVisualStyle
  2
Brighten
 70
    12
 71
     2
 72
     2
 73
     0
 90
        0
 40
-0.6
 41
-30.0
 62
     5
 63
     7
 74
     1
 91
        4
 64
     7
 65
   257
 75
     1
175
     1
 42
1.0
 92
        8
 66
     7
 43
1.0
 76
     1
 77
     6
 78
     2
 67
     7
 79
     5
170
     0
171
     0
290
     0
174
     0
 93
        1
 44
50.0
173
     0
291
     1
 45
0.0
1001
ACAD
1000
AcDbSavedByObjectVersion
1070
     0
  0
VISUALSTYLE
  5
3A
102
{ACAD_REACTORS
330
2A
102
}
102
{ACAD_XDICTIONARY
360
3BE
102
}
330
2A
100
AcDbVisualStyle
  2
ColorChange
 70
    16
 71
     2
 72
     2
 73
     3
 90
        0
 40
-0.6
 41
-30.0
 62
     5
 63
     8
 74
     1
 91
        4
 64
     7
 65
   257
 75
     1
175
     1
 42
1.0
 92
        8
 66
     8
 43
1.0
 76
     1
 77
     6
 78
     2
 67
     7
 79
     5
170
     0
171
     0
290
     0
174
     0
 93
        1
 44
0.0
173
     0
291
     1
 45
0.0
1001
ACAD
1000
AcDbSavedByObjectVersion
1070
     0
  0
VISUALSTYLE
  5
34
102
{ACAD_REACTORS
330
2A
102
}
102
{ACAD_XDICTIONARY
360
3B2
102
}
330
2A
100
AcDbVisualStyle
  2
Conceptual
 70
     9
 71
     3
 72
     2
 73
     0
 90
        0
 40
-0.6
 41
-30.0
 62
     5
 63
     7
 74
     2
 91
        2
 64
     7
 65
   257
 75
     1
175
     1
 42
40.0
 92
        8
 66
     7
 43
1.0
 76
     1
 77
     6
 78
     2
 67
     7
 79
     3
170
     0
171
     0
290
     0
174
     0
 93
        1
 44
0.0
173
     0
291
     0
 45
0.0
1001
ACAD
1000
AcDbSavedByObjectVersion
1070
     0
  0
VISUALSTYLE
  5
35
102
{ACAD_REACTORS
330
2A
102
}
102
{ACAD_XDICTIONARY
360
3B4
102
}
330
2A
100
AcDbVisualStyle
  2
Dim
 70
    11
 71
     2
 72
     2
 73
     0
 90
        0
 40
-0.6
 41
-30.0
 62
     5
 63
     7
 74
     1
 91
        4
 64
     7
 65
   257
 75
     1
175
     1
 42
1.0
 92
        8
 66
     7
 43
1.0
 76
     1
 77
     6
 78
     2
 67
     7
 79
     5
170
     0
171
     0
290
     0
174
     0
 93
        1
 44
-50.0
173
     0
291
     1
 45
0.0
1001
ACAD
1000
AcDbSavedByObjectVersion
1070
     0
  0
VISUALSTYLE
  5
39
102
{ACAD_REACTORS
330
2A
102
}
102
{ACAD_XDICTIONARY
360
3BC
102
}
330
2A
100
AcDbVisualStyle
  2
Facepattern
 70
    15
 71
     2
 72
     2
 73
     0
 90
        0
 40
-0.6
 41
-30.0
 62
     5
 63
     7
 74
     1
 91
        4
 64
     7
 65
   257
 75
     1
175
     1
 42
1.0
 92
        8
 66
     7
 43
1.0
 76
     1
 77
     6
 78
     2
 67
     7
 79
     5
170
     0
171
     0
290
     0
174
     0
 93
        1
 44
0.0
173
     0
291
     1
 45
0.0
1001
ACAD
1000
AcDbSavedByObjectVersion
1070
     0
  0
VISUALSTYLE
  5
2B
102
{ACAD_REACTORS
330
2A
102
}
102
{ACAD_XDICTIONARY
360
3A0
102
}
330
2A
100
AcDbVisualStyle
  2
Flat
 70
     0
 71
     2
 72
     1
 73
     1
 90
        2
 40
-0.6
 41
30.0
 62
     5
 63
     7
 74
     0
 91
        4
 64
     7
 65
   257
 75
     1
175
     1
 42
1.0
 92
        8
 66
     7
 43
1.0
 76
     1
 77
     6
 78
     2
 67
     7
 79
     5
170
     0
171
     0
290
     0
174
     0
 93
       13
 44
0.0
173
     0
291
     1
 45
0.0
1001
ACAD
1000
AcDbSavedByObjectVersion
1070
     0
  0
VISUALSTYLE
  5
2C
102
{ACAD_REACTORS
330
2A
102
}
102
{ACAD_XDICTIONARY
360
3A2
102
}
330
2A
100
AcDbVisualStyle
  2
FlatWithEdges
 70
     1
 71
     2
 72
     1
 73
     1
 90
        2
 40
-0.6
 41
30.0
 62
     5
 63
     7
 74
     1
 91
        4
 64
     7
 65
   257
 75
     1
175
     1
 42
1.0
 92
        0
 66
   257
 43
1.0
 76
     1
 77
     6
 78
     2
 67
     7
 79
     5
170
     0
171
     0
290
     0
174
     0
 93
       13
 44
0.0
173
     0
291
     1
 45
0.0
1001
ACAD
1000
AcDbSavedByObjectVersion
1070
     0
  0
VISUALSTYLE
  5
2D
102
{ACAD_REACTORS
330
2A
102
}
102
{ACAD_XDICTIONARY
360
3A4
102
}
330
2A
100
AcDbVisualStyle
  2
Gouraud
 70
     2
 71
     2
 72
     2
 73
     1
 90
        2
 40
-0.6
 41
30.0
 62
     5
 63
     7
 74
     0
 91
        4
 64
     7
 65
   257
 75
     1
175
     1
 42
1.0
 92
        0
 66
     7
 43
1.0
 76
     1
 77
     6
 78
     2
 67
     7
 79
     5
170
     0
171
     0
290
     0
174
     0
 93
       13
 44
0.0
173
     0
291
     1
 45
0.0
1001
ACAD
1000
AcDbSavedByObjectVersion
1070
     0
  0
VISUALSTYLE
  5
2E
102
{ACAD_REACTORS
330
2A
102
}
102
{ACAD_XDICTIONARY
360
3A6
102
}
330
2A
100
AcDbVisualStyle
  2
GouraudWithEdges
 70
     3
 71
     2
 72
     2
 73
     1
 90
        2
 40
-0.6
 41
30.0
 62
     5
 63
     7
 74
     1
 91
        4
 64
     7
 65
   257
 75
     1
175
     1
 42
1.0
 92
        0
 66
   257
 43
1.0
 76
     1
 77
     6
 78
     2
 67
     7
 79
     5
170
     0
171
     0
290
     0
174
     0
 93
       13
 44
0.0
173
     0
291
     1
 45
0.0
1001
ACAD
1000
AcDbSavedByObjectVersion
1070
     0
  0
VISUALSTYLE
  5
38
102
{ACAD_REACTORS
330
2A
102
}
102
{ACAD_XDICTIONARY
360
3BA
102
}
330
2A
100
AcDbVisualStyle
  2
Linepattern
 70
    14
 71
     2
 72
     2
 73
     0
 90
        0
 40
-0.6
 41
-30.0
 62
     5
 63
     7
 74
     1
 91
        4
 64
     7
 65
   257
 75
     7
175
     7
 42
1.0
 92
        8
 66
     7
 43
1.0
 76
     1
 77
     6
 78
     2
 67
     7
 79
     5
170
     0
171
     0
290
     0
174
     0
 93
        1
 44
0.0
173
     0
291
     1
 45
0.0
1001
ACAD
1000
AcDbSavedByObjectVersion
1070
     0
  0
VISUALSTYLE
  5
33
102
{ACAD_REACTORS
330
2A
102
}
102
{ACAD_XDICTIONARY
360
3B0
102
}
330
2A
100
AcDbVisualStyle
  2
Realistic
 70
     8
 71
     2
 72
     2
 73
     0
 90
        0
 40
-0.6
 41
-30.0
 62
     5
 63
     7
 74
     1
 91
        0
 64
     7
 65
   257
 75
     1
175
     1
 42
1.0
 92
        8
 66
     8
 43
1.0
 76
     1
 77
     6
 78
     2
 67
     7
 79
     5
170
     0
171
     0
290
     0
174
     0
 93
       13
 44
0.0
173
     0
291
     0
 45
0.0
1001
ACAD
1000
AcDbSavedByObjectVersion
1070
     0
  0
VISUALSTYLE
  5
37
102
{ACAD_REACTORS
330
2A
102
}
102
{ACAD_XDICTIONARY
360
3B8
102
}
330
2A
100
AcDbVisualStyle
  2
Thicken
 70
    13
 71
     2
 72
     2
 73
     0
 90
        0
 40
-0.6
 41
-30.0
 62
     5
 63
     7
 74
     1
 91
        4
 64
     7
 65
   257
 75
     1
175
     1
 42
1.0
 92
       12
 66
     7
 43
1.0
 76
     1
 77
     6
 78
     2
 67
     7
 79
     5
170
     0
171
     0
290
     0
174
     0
 93
        1
 44
0.0
173
     0
291
     1
 45
0.0
1001
ACAD
1000
AcDbSavedByObjectVersion
1070
     0
  0
DICTIONARYVAR
  5
39E
102
{ACAD_REACTORS
330
39B
102
}
330
39B
100
DictionaryVariables
280
     0
  1
2
  0
DICTIONARYVAR
  5
39F
102
{ACAD_REACTORS
330
39B
102
}
330
39B
100
DictionaryVariables
280
     0
  1
1
  0
DICTIONARY
  5
3C2
330
3D
100
AcDbDictionary
280
     1
281
     1
  3
ACAD_XREC_ROUNDTRIP
360
3C3
  0
DICTIONARY
  5
3C0
330
3C
100
AcDbDictionary
280
     1
281
     1
  3
ACAD_XREC_ROUNDTRIP
360
3C1
  0
DICTIONARY
  5
3C4
330
3E
100
AcDbDictionary
280
     1
281
     1
  3
ACAD_XREC_ROUNDTRIP
360
3C5
  0
DICTIONARY
  5
3A8
330
2F
100
AcDbDictionary
280
     1
281
     1
  3
ACAD_XREC_ROUNDTRIP
360
3A9
  0
DICTIONARY
  5
3AC
330
31
100
AcDbDictionary
280
     1
281
     1
  3
ACAD_XREC_ROUNDTRIP
360
3AD
  0
DICTIONARY
  5
3AA
330
30
100
AcDbDictionary
280
     1
281
     1
  3
ACAD_XREC_ROUNDTRIP
360
3AB
  0
DICTIONARY
  5
3AE
330
32
100
AcDbDictionary
280
     1
281
     1
  3
ACAD_XREC_ROUNDTRIP
360
3AF
  0
DICTIONARY
  5
3B6
330
36
100
AcDbDictionary
280
     1
281
     1
  3
ACAD_XREC_ROUNDTRIP
360
3B7
  0
DICTIONARY
  5
3BE
330
3A
100
AcDbDictionary
280
     1
281
     1
  3
ACAD_XREC_ROUNDTRIP
360
3BF
  0
DICTIONARY
  5
3B2
330
34
100
AcDbDictionary
280
     1
281
     1
  3
ACAD_XREC_ROUNDTRIP
360
3B3
  0
DICTIONARY
  5
3B4
330
35
100
AcDbDictionary
280
     1
281
     1
  3
ACAD_XREC_ROUNDTRIP
360
3B5
  0
DICTIONARY
  5
3BC
330
39
100
AcDbDictionary
280
     1
281
     1
  3
ACAD_XREC_ROUNDTRIP
360
3BD
  0
DICTIONARY
  5
3A0
330
2B
100
AcDbDictionary
280
     1
281
     1
  3
ACAD_XREC_ROUNDTRIP
360
3A1
  0
DICTIONARY
  5
3A2
330
2C
100
AcDbDictionary
280
     1
281
     1
  3
ACAD_XREC_ROUNDTRIP
360
3A3
  0
DICTIONARY
  5
3A4
330
2D
100
AcDbDictionary
280
     1
281
     1
  3
ACAD_XREC_ROUNDTRIP
360
3A5
  0
DICTIONARY
  5
3A6
330
2E
100
AcDbDictionary
280
     1
281
     1
  3
ACAD_XREC_ROUNDTRIP
360
3A7
  0
DICTIONARY
  5
3BA
330
38
100
AcDbDictionary
280
     1
281
     1
  3
ACAD_XREC_ROUNDTRIP
360
3BB
  0
DICTIONARY
  5
3B0
330
33
100
AcDbDictionary
280
     1
281
     1
  3
ACAD_XREC_ROUNDTRIP
360
3B1
  0
DICTIONARY
  5
3B8
330
37
100
AcDbDictionary
280
     1
281
     1
  3
ACAD_XREC_ROUNDTRIP
360
3B9
  0
XRECORD
  5
3C3
102
{ACAD_REACTORS
330
3C2
102
}
330
3C2
100
AcDbXrecord
280
     1
102
MATERIAL
148
0.0
149
0.0
149
0.0
 93
        0
 94
      127
282
     0
 72
     1
 77
     1
171
     1
175
     1
179
     1
273
     0
  0
XRECORD
  5
3C1
102
{ACAD_REACTORS
330
3C0
102
}
330
3C0
100
AcDbXrecord
280
     1
102
MATERIAL
148
0.0
149
0.0
149
0.0
 93
        0
 94
      127
282
     0
 72
     1
 77
     1
171
     1
175
     1
179
     1
273
     0
  0
XRECORD
  5
3C5
102
{ACAD_REACTORS
330
3C4
102
}
330
3C4
100
AcDbXrecord
280
     1
102
MATERIAL
148
0.0
149
0.0
149
0.0
 93
        0
 94
      127
282
     0
 72
     1
 77
     1
171
     1
175
     1
179
     1
273
     0
  0
XRECORD
  5
3A9
102
{ACAD_REACTORS
330
3A8
102
}
330
3A8
100
AcDbXrecord
280
     1
102
RTVSPropertyOp0
 70
     1
102
RTVSPropertyOp1
 70
     1
102
RTVSPropertyOp2
 70
     1
102
RTVSPropertyOp3
 70
     1
102
RTVSPropertyOp4
 70
     1
102
RTVSPropertyOp5
 70
     1
102
RTVSPropertyOp6
 70
     1
102
RTVSPropertyOp7
 70
     1
102
RTVSPropertyOp8
 70
     1
102
RTVSPropertyOp9
 70
     1
102
RTVSPropertyOp10
 70
     1
102
RTVSPropertyOp11
 70
     1
102
RTVSPropertyOp12
 70
     1
102
RTVSPropertyOp13
 70
     1
102
RTVSPropertyOp14
 70
     1
102
RTVSPropertyOp15
 70
     1
102
RTVSPropertyOp16
 70
     1
102
RTVSPropertyOp17
 70
     1
102
RTVSPropertyOp18
 70
     1
102
RTVSPropertyOp19
 70
     1
102
RTVSPropertyOp20
 70
     1
102
RTVSPropertyOp21
 70
     1
102
RTVSPropertyOp22
 70
     1
102
RTVSPropertyOp23
 70
     1
102
RTVSPropertyOp24
 70
     1
102
RTVSPropertyOp25
 70
     1
102
RTVSPropertyOp26
 70
     1
102
RTVSPropertyOp27
 70
     1
102
RTVSPropertyOp28
 70
     1
102
RTVSPropertyOp29
 70
     1
102
RTVSPropertyOp30
 70
     1
102
RTVSPropertyOp31
 70
     1
102
RTVSPropertyOp32
 70
     1
  0
XRECORD
  5
3AD
102
{ACAD_REACTORS
330
3AC
102
}
330
3AC
100
AcDbXrecord
280
     1
102
RTVSPropertyOp0
 70
     1
102
RTVSPropertyOp1
 70
     1
102
RTVSPropertyOp2
 70
     1
102
RTVSPropertyOp3
 70
     1
102
RTVSPropertyOp4
 70
     1
102
RTVSPropertyOp5
 70
     1
102
RTVSPropertyOp6
 70
     1
102
RTVSPropertyOp7
 70
     1
102
RTVSPropertyOp8
 70
     1
102
RTVSPropertyOp9
 70
     1
102
RTVSPropertyOp10
 70
     1
102
RTVSPropertyOp11
 70
     1
102
RTVSPropertyOp12
 70
     1
102
RTVSPropertyOp13
 70
     1
102
RTVSPropertyOp14
 70
     1
102
RTVSPropertyOp15
 70
     1
102
RTVSPropertyOp16
 70
     1
102
RTVSPropertyOp17
 70
     1
102
RTVSPropertyOp18
 70
     1
102
RTVSPropertyOp19
 70
     1
102
RTVSPropertyOp20
 70
     1
102
RTVSPropertyOp21
 70
     1
102
RTVSPropertyOp22
 70
     1
102
RTVSPropertyOp23
 70
     1
102
RTVSPropertyOp24
 70
     1
102
RTVSPropertyOp25
 70
     1
102
RTVSPropertyOp26
 70
     1
102
RTVSPropertyOp27
 70
     1
102
RTVSPropertyOp28
 70
     1
102
RTVSPropertyOp29
 70
     1
102
RTVSPropertyOp30
 70
     1
102
RTVSPropertyOp31
 70
     1
102
RTVSPropertyOp32
 70
     1
  0
XRECORD
  5
3AB
102
{ACAD_REACTORS
330
3AA
102
}
330
3AA
100
AcDbXrecord
280
     1
102
RTVSPropertyOp0
 70
     1
102
RTVSPropertyOp1
 70
     1
102
RTVSPropertyOp2
 70
     1
102
RTVSPropertyOp3
 70
     1
102
RTVSPropertyOp4
 70
     1
102
RTVSPropertyOp5
 70
     1
102
RTVSPropertyOp6
 70
     1
102
RTVSPropertyOp7
 70
     1
102
RTVSPropertyOp8
 70
     1
102
RTVSPropertyOp9
 70
     1
102
RTVSPropertyOp10
 70
     1
102
RTVSPropertyOp11
 70
     1
102
RTVSPropertyOp12
 70
     1
102
RTVSPropertyOp13
 70
     1
102
RTVSPropertyOp14
 70
     1
102
RTVSPropertyOp15
 70
     1
102
RTVSPropertyOp16
 70
     1
102
RTVSPropertyOp17
 70
     1
102
RTVSPropertyOp18
 70
     1
102
RTVSPropertyOp19
 70
     1
102
RTVSPropertyOp20
 70
     1
102
RTVSPropertyOp21
 70
     1
102
RTVSPropertyOp22
 70
     1
102
RTVSPropertyOp23
 70
     1
102
RTVSPropertyOp24
 70
     1
102
RTVSPropertyOp25
 70
     1
102
RTVSPropertyOp26
 70
     1
102
RTVSPropertyOp27
 70
     1
102
RTVSPropertyOp28
 70
     1
102
RTVSPropertyOp29
 70
     1
102
RTVSPropertyOp30
 70
     1
102
RTVSPropertyOp31
 70
     1
102
RTVSPropertyOp32
 70
     1
  0
XRECORD
  5
3AF
102
{ACAD_REACTORS
330
3AE
102
}
330
3AE
100
AcDbXrecord
280
     1
102
RTVSPropertyOp0
 70
     1
102
RTVSPropertyOp1
 70
     1
102
RTVSPropertyOp2
 70
     1
102
RTVSPropertyOp3
 70
     1
102
RTVSPropertyOp4
 70
     1
102
RTVSPropertyOp5
 70
     1
102
RTVSPropertyOp6
 70
     1
102
RTVSPropertyOp7
 70
     1
102
RTVSPropertyOp8
 70
     1
102
RTVSPropertyOp9
 70
     1
102
RTVSPropertyOp10
 70
     1
102
RTVSPropertyOp11
 70
     1
102
RTVSPropertyOp12
 70
     1
102
RTVSPropertyOp13
 70
     1
102
RTVSPropertyOp14
 70
     1
102
RTVSPropertyOp15
 70
     1
102
RTVSPropertyOp16
 70
     1
102
RTVSPropertyOp17
 70
     1
102
RTVSPropertyOp18
 70
     1
102
RTVSPropertyOp19
 70
     1
102
RTVSPropertyOp20
 70
     1
102
RTVSPropertyOp21
 70
     1
102
RTVSPropertyOp22
 70
     1
102
RTVSPropertyOp23
 70
     1
102
RTVSPropertyOp24
 70
     1
102
RTVSPropertyOp25
 70
     1
102
RTVSPropertyOp26
 70
     1
102
RTVSPropertyOp27
 70
     1
102
RTVSPropertyOp28
 70
     1
102
RTVSPropertyOp29
 70
     1
102
RTVSPropertyOp30
 70
     1
102
RTVSPropertyOp31
 70
     1
102
RTVSPropertyOp32
 70
     1
  0
XRECORD
  5
3B7
102
{ACAD_REACTORS
330
3B6
102
}
330
3B6
100
AcDbXrecord
280
     1
102
RTVSPropertyOp0
 70
     1
102
RTVSPropertyOp1
 70
     1
102
RTVSPropertyOp2
 70
     1
102
RTVSPropertyOp3
 70
     1
102
RTVSPropertyOp4
 70
     1
102
RTVSPropertyOp5
 70
     1
102
RTVSPropertyOp6
 70
     1
102
RTVSPropertyOp7
 70
     1
102
RTVSPropertyOp8
 70
     1
102
RTVSPropertyOp9
 70
     1
102
RTVSPropertyOp10
 70
     1
102
RTVSPropertyOp11
 70
     1
102
RTVSPropertyOp12
 70
     1
102
RTVSPropertyOp13
 70
     1
102
RTVSPropertyOp14
 70
     1
102
RTVSPropertyOp15
 70
     1
102
RTVSPropertyOp16
 70
     1
102
RTVSPropertyOp17
 70
     1
102
RTVSPropertyOp18
 70
     1
102
RTVSPropertyOp19
 70
     1
102
RTVSPropertyOp20
 70
     1
102
RTVSPropertyOp21
 70
     1
102
RTVSPropertyOp22
 70
     1
102
RTVSPropertyOp23
 70
     1
102
RTVSPropertyOp24
 70
     1
102
RTVSPropertyOp25
 70
     1
102
RTVSPropertyOp26
 70
     1
102
RTVSPropertyOp27
 70
     1
102
RTVSPropertyOp28
 70
     1
102
RTVSPropertyOp29
 70
     1
102
RTVSPropertyOp30
 70
     1
102
RTVSPropertyOp31
 70
     1
102
RTVSPropertyOp32
 70
     1
  0
XRECORD
  5
3BF
102
{ACAD_REACTORS
330
3BE
102
}
330
3BE
100
AcDbXrecord
280
     1
102
RTVSPropertyOp0
 70
     1
102
RTVSPropertyOp1
 70
     1
102
RTVSPropertyOp2
 70
     1
102
RTVSPropertyOp3
 70
     1
102
RTVSPropertyOp4
 70
     1
102
RTVSPropertyOp5
 70
     1
102
RTVSPropertyOp6
 70
     1
102
RTVSPropertyOp7
 70
     1
102
RTVSPropertyOp8
 70
     1
102
RTVSPropertyOp9
 70
     1
102
RTVSPropertyOp10
 70
     1
102
RTVSPropertyOp11
 70
     1
102
RTVSPropertyOp12
 70
     1
102
RTVSPropertyOp13
 70
     1
102
RTVSPropertyOp14
 70
     1
102
RTVSPropertyOp15
 70
     1
102
RTVSPropertyOp16
 70
     1
102
RTVSPropertyOp17
 70
     1
102
RTVSPropertyOp18
 70
     1
102
RTVSPropertyOp19
 70
     1
102
RTVSPropertyOp20
 70
     1
102
RTVSPropertyOp21
 70
     1
102
RTVSPropertyOp22
 70
     1
102
RTVSPropertyOp23
 70
     1
102
RTVSPropertyOp24
 70
     1
102
RTVSPropertyOp25
 70
     1
102
RTVSPropertyOp26
 70
     1
102
RTVSPropertyOp27
 70
     1
102
RTVSPropertyOp28
 70
     1
102
RTVSPropertyOp29
 70
     1
102
RTVSPropertyOp30
 70
     1
102
RTVSPropertyOp31
 70
     1
102
RTVSPropertyOp32
 70
     1
  0
XRECORD
  5
3B3
102
{ACAD_REACTORS
330
3B2
102
}
330
3B2
100
AcDbXrecord
280
     1
102
RTVSPropertyOp0
 70
     1
102
RTVSPropertyOp1
 70
     1
102
RTVSPropertyOp2
 70
     1
102
RTVSPropertyOp3
 70
     1
102
RTVSPropertyOp4
 70
     1
102
RTVSPropertyOp5
 70
     1
102
RTVSPropertyOp6
 70
     1
102
RTVSPropertyOp7
 70
     1
102
RTVSPropertyOp8
 70
     1
102
RTVSPropertyOp9
 70
     1
102
RTVSPropertyOp10
 70
     1
102
RTVSPropertyOp11
 70
     1
102
RTVSPropertyOp12
 70
     1
102
RTVSPropertyOp13
 70
     1
102
RTVSPropertyOp14
 70
     1
102
RTVSPropertyOp15
 70
     1
102
RTVSPropertyOp16
 70
     1
102
RTVSPropertyOp17
 70
     1
102
RTVSPropertyOp18
 70
     1
102
RTVSPropertyOp19
 70
     1
102
RTVSPropertyOp20
 70
     1
102
RTVSPropertyOp21
 70
     1
102
RTVSPropertyOp22
 70
     1
102
RTVSPropertyOp23
 70
     1
102
RTVSPropertyOp24
 70
     1
102
RTVSPropertyOp25
 70
     1
102
RTVSPropertyOp26
 70
     1
102
RTVSPropertyOp27
 70
     1
102
RTVSPropertyOp28
 70
     1
102
RTVSPropertyOp29
 70
     1
102
RTVSPropertyOp30
 70
     1
102
RTVSPropertyOp31
 70
     1
102
RTVSPropertyOp32
 70
     1
  0
XRECORD
  5
3B5
102
{ACAD_REACTORS
330
3B4
102
}
330
3B4
100
AcDbXrecord
280
     1
102
RTVSPropertyOp0
 70
     1
102
RTVSPropertyOp1
 70
     1
102
RTVSPropertyOp2
 70
     1
102
RTVSPropertyOp3
 70
     1
102
RTVSPropertyOp4
 70
     1
102
RTVSPropertyOp5
 70
     1
102
RTVSPropertyOp6
 70
     1
102
RTVSPropertyOp7
 70
     1
102
RTVSPropertyOp8
 70
     1
102
RTVSPropertyOp9
 70
     1
102
RTVSPropertyOp10
 70
     1
102
RTVSPropertyOp11
 70
     1
102
RTVSPropertyOp12
 70
     1
102
RTVSPropertyOp13
 70
     1
102
RTVSPropertyOp14
 70
     1
102
RTVSPropertyOp15
 70
     1
102
RTVSPropertyOp16
 70
     1
102
RTVSPropertyOp17
 70
     1
102
RTVSPropertyOp18
 70
     1
102
RTVSPropertyOp19
 70
     1
102
RTVSPropertyOp20
 70
     1
102
RTVSPropertyOp21
 70
     1
102
RTVSPropertyOp22
 70
     1
102
RTVSPropertyOp23
 70
     1
102
RTVSPropertyOp24
 70
     1
102
RTVSPropertyOp25
 70
     1
102
RTVSPropertyOp26
 70
     1
102
RTVSPropertyOp27
 70
     1
102
RTVSPropertyOp28
 70
     1
102
RTVSPropertyOp29
 70
     1
102
RTVSPropertyOp30
 70
     1
102
RTVSPropertyOp31
 70
     1
102
RTVSPropertyOp32
 70
     1
  0
XRECORD
  5
3BD
102
{ACAD_REACTORS
330
3BC
102
}
330
3BC
100
AcDbXrecord
280
     1
102
RTVSPropertyOp0
 70
     1
102
RTVSPropertyOp1
 70
     1
102
RTVSPropertyOp2
 70
     1
102
RTVSPropertyOp3
 70
     1
102
RTVSPropertyOp4
 70
     1
102
RTVSPropertyOp5
 70
     1
102
RTVSPropertyOp6
 70
     1
102
RTVSPropertyOp7
 70
     1
102
RTVSPropertyOp8
 70
     1
102
RTVSPropertyOp9
 70
     1
102
RTVSPropertyOp10
 70
     1
102
RTVSPropertyOp11
 70
     1
102
RTVSPropertyOp12
 70
     1
102
RTVSPropertyOp13
 70
     1
102
RTVSPropertyOp14
 70
     1
102
RTVSPropertyOp15
 70
     1
102
RTVSPropertyOp16
 70
     1
102
RTVSPropertyOp17
 70
     1
102
RTVSPropertyOp18
 70
     1
102
RTVSPropertyOp19
 70
     1
102
RTVSPropertyOp20
 70
     1
102
RTVSPropertyOp21
 70
     1
102
RTVSPropertyOp22
 70
     1
102
RTVSPropertyOp23
 70
     1
102
RTVSPropertyOp24
 70
     1
102
RTVSPropertyOp25
 70
     1
102
RTVSPropertyOp26
 70
     1
102
RTVSPropertyOp27
 70
     1
102
RTVSPropertyOp28
 70
     1
102
RTVSPropertyOp29
 70
     1
102
RTVSPropertyOp30
 70
     1
102
RTVSPropertyOp31
 70
     1
102
RTVSPropertyOp32
 70
     1
  0
XRECORD
  5
3A1
102
{ACAD_REACTORS
330
3A0
102
}
330
3A0
100
AcDbXrecord
280
     1
102
RTVSPropertyOp0
 70
     1
102
RTVSPropertyOp1
 70
     1
102
RTVSPropertyOp2
 70
     1
102
RTVSPropertyOp3
 70
     1
102
RTVSPropertyOp4
 70
     1
102
RTVSPropertyOp5
 70
     1
102
RTVSPropertyOp6
 70
     1
102
RTVSPropertyOp7
 70
     1
102
RTVSPropertyOp8
 70
     1
102
RTVSPropertyOp9
 70
     1
102
RTVSPropertyOp10
 70
     1
102
RTVSPropertyOp11
 70
     1
102
RTVSPropertyOp12
 70
     1
102
RTVSPropertyOp13
 70
     1
102
RTVSPropertyOp14
 70
     1
102
RTVSPropertyOp15
 70
     1
102
RTVSPropertyOp16
 70
     1
102
RTVSPropertyOp17
 70
     1
102
RTVSPropertyOp18
 70
     1
102
RTVSPropertyOp19
 70
     1
102
RTVSPropertyOp20
 70
     1
102
RTVSPropertyOp21
 70
     1
102
RTVSPropertyOp22
 70
     1
102
RTVSPropertyOp23
 70
     1
102
RTVSPropertyOp24
 70
     1
102
RTVSPropertyOp25
 70
     1
102
RTVSPropertyOp26
 70
     1
102
RTVSPropertyOp27
 70
     1
102
RTVSPropertyOp28
 70
     1
102
RTVSPropertyOp29
 70
     1
102
RTVSPropertyOp30
 70
     1
102
RTVSPropertyOp31
 70
     1
102
RTVSPropertyOp32
 70
     1
  0
XRECORD
  5
3A3
102
{ACAD_REACTORS
330
3A2
102
}
330
3A2
100
AcDbXrecord
280
     1
102
RTVSPropertyOp0
 70
     1
102
RTVSPropertyOp1
 70
     1
102
RTVSPropertyOp2
 70
     1
102
RTVSPropertyOp3
 70
     1
102
RTVSPropertyOp4
 70
     1
102
RTVSPropertyOp5
 70
     1
102
RTVSPropertyOp6
 70
     1
102
RTVSPropertyOp7
 70
     1
102
RTVSPropertyOp8
 70
     1
102
RTVSPropertyOp9
 70
     1
102
RTVSPropertyOp10
 70
     1
102
RTVSPropertyOp11
 70
     1
102
RTVSPropertyOp12
 70
     1
102
RTVSPropertyOp13
 70
     1
102
RTVSPropertyOp14
 70
     1
102
RTVSPropertyOp15
 70
     1
102
RTVSPropertyOp16
 70
     1
102
RTVSPropertyOp17
 70
     1
102
RTVSPropertyOp18
 70
     1
102
RTVSPropertyOp19
 70
     1
102
RTVSPropertyOp20
 70
     1
102
RTVSPropertyOp21
 70
     1
102
RTVSPropertyOp22
 70
     1
102
RTVSPropertyOp23
 70
     1
102
RTVSPropertyOp24
 70
     1
102
RTVSPropertyOp25
 70
     1
102
RTVSPropertyOp26
 70
     1
102
RTVSPropertyOp27
 70
     1
102
RTVSPropertyOp28
 70
     1
102
RTVSPropertyOp29
 70
     1
102
RTVSPropertyOp30
 70
     1
102
RTVSPropertyOp31
 70
     1
102
RTVSPropertyOp32
 70
     1
  0
XRECORD
  5
3A5
102
{ACAD_REACTORS
330
3A4
102
}
330
3A4
100
AcDbXrecord
280
     1
102
RTVSPropertyOp0
 70
     1
102
RTVSPropertyOp1
 70
     1
102
RTVSPropertyOp2
 70
     1
102
RTVSPropertyOp3
 70
     1
102
RTVSPropertyOp4
 70
     1
102
RTVSPropertyOp5
 70
     1
102
RTVSPropertyOp6
 70
     1
102
RTVSPropertyOp7
 70
     1
102
RTVSPropertyOp8
 70
     1
102
RTVSPropertyOp9
 70
     1
102
RTVSPropertyOp10
 70
     1
102
RTVSPropertyOp11
 70
     1
102
RTVSPropertyOp12
 70
     1
102
RTVSPropertyOp13
 70
     1
102
RTVSPropertyOp14
 70
     1
102
RTVSPropertyOp15
 70
     1
102
RTVSPropertyOp16
 70
     1
102
RTVSPropertyOp17
 70
     1
102
RTVSPropertyOp18
 70
     1
102
RTVSPropertyOp19
 70
     1
102
RTVSPropertyOp20
 70
     1
102
RTVSPropertyOp21
 70
     1
102
RTVSPropertyOp22
 70
     1
102
RTVSPropertyOp23
 70
     1
102
RTVSPropertyOp24
 70
     1
102
RTVSPropertyOp25
 70
     1
102
RTVSPropertyOp26
 70
     1
102
RTVSPropertyOp27
 70
     1
102
RTVSPropertyOp28
 70
     1
102
RTVSPropertyOp29
 70
     1
102
RTVSPropertyOp30
 70
     1
102
RTVSPropertyOp31
 70
     1
102
RTVSPropertyOp32
 70
     1
  0
XRECORD
  5
3A7
102
{ACAD_REACTORS
330
3A6
102
}
330
3A6
100
AcDbXrecord
280
     1
102
RTVSPropertyOp0
 70
     1
102
RTVSPropertyOp1
 70
     1
102
RTVSPropertyOp2
 70
     1
102
RTVSPropertyOp3
 70
     1
102
RTVSPropertyOp4
 70
     1
102
RTVSPropertyOp5
 70
     1
102
RTVSPropertyOp6
 70
     1
102
RTVSPropertyOp7
 70
     1
102
RTVSPropertyOp8
 70
     1
102
RTVSPropertyOp9
 70
     1
102
RTVSPropertyOp10
 70
     1
102
RTVSPropertyOp11
 70
     1
102
RTVSPropertyOp12
 70
     1
102
RTVSPropertyOp13
 70
     1
102
RTVSPropertyOp14
 70
     1
102
RTVSPropertyOp15
 70
     1
102
RTVSPropertyOp16
 70
     1
102
RTVSPropertyOp17
 70
     1
102
RTVSPropertyOp18
 70
     1
102
RTVSPropertyOp19
 70
     1
102
RTVSPropertyOp20
 70
     1
102
RTVSPropertyOp21
 70
     1
102
RTVSPropertyOp22
 70
     1
102
RTVSPropertyOp23
 70
     1
102
RTVSPropertyOp24
 70
     1
102
RTVSPropertyOp25
 70
     1
102
RTVSPropertyOp26
 70
     1
102
RTVSPropertyOp27
 70
     1
102
RTVSPropertyOp28
 70
     1
102
RTVSPropertyOp29
 70
     1
102
RTVSPropertyOp30
 70
     1
102
RTVSPropertyOp31
 70
     1
102
RTVSPropertyOp32
 70
     1
  0
XRECORD
  5
3BB
102
{ACAD_REACTORS
330
3BA
102
}
330
3BA
100
AcDbXrecord
280
     1
102
RTVSPropertyOp0
 70
     1
102
RTVSPropertyOp1
 70
     1
102
RTVSPropertyOp2
 70
     1
102
RTVSPropertyOp3
 70
     1
102
RTVSPropertyOp4
 70
     1
102
RTVSPropertyOp5
 70
     1
102
RTVSPropertyOp6
 70
     1
102
RTVSPropertyOp7
 70
     1
102
RTVSPropertyOp8
 70
     1
102
RTVSPropertyOp9
 70
     1
102
RTVSPropertyOp10
 70
     1
102
RTVSPropertyOp11
 70
     1
102
RTVSPropertyOp12
 70
     1
102
RTVSPropertyOp13
 70
     1
102
RTVSPropertyOp14
 70
     1
102
RTVSPropertyOp15
 70
     1
102
RTVSPropertyOp16
 70
     1
102
RTVSPropertyOp17
 70
     1
102
RTVSPropertyOp18
 70
     1
102
RTVSPropertyOp19
 70
     1
102
RTVSPropertyOp20
 70
     1
102
RTVSPropertyOp21
 70
     1
102
RTVSPropertyOp22
 70
     1
102
RTVSPropertyOp23
 70
     1
102
RTVSPropertyOp24
 70
     1
102
RTVSPropertyOp25
 70
     1
102
RTVSPropertyOp26
 70
     1
102
RTVSPropertyOp27
 70
     1
102
RTVSPropertyOp28
 70
     1
102
RTVSPropertyOp29
 70
     1
102
RTVSPropertyOp30
 70
     1
102
RTVSPropertyOp31
 70
     1
102
RTVSPropertyOp32
 70
     1
  0
XRECORD
  5
3B1
102
{ACAD_REACTORS
330
3B0
102
}
330
3B0
100
AcDbXrecord
280
     1
102
RTVSPropertyOp0
 70
     1
102
RTVSPropertyOp1
 70
     1
102
RTVSPropertyOp2
 70
     1
102
RTVSPropertyOp3
 70
     1
102
RTVSPropertyOp4
 70
     1
102
RTVSPropertyOp5
 70
     1
102
RTVSPropertyOp6
 70
     1
102
RTVSPropertyOp7
 70
     1
102
RTVSPropertyOp8
 70
     1
102
RTVSPropertyOp9
 70
     1
102
RTVSPropertyOp10
 70
     1
102
RTVSPropertyOp11
 70
     1
102
RTVSPropertyOp12
 70
     1
102
RTVSPropertyOp13
 70
     1
102
RTVSPropertyOp14
 70
     1
102
RTVSPropertyOp15
 70
     1
102
RTVSPropertyOp16
 70
     1
102
RTVSPropertyOp17
 70
     1
102
RTVSPropertyOp18
 70
     1
102
RTVSPropertyOp19
 70
     1
102
RTVSPropertyOp20
 70
     1
102
RTVSPropertyOp21
 70
     1
102
RTVSPropertyOp22
 70
     1
102
RTVSPropertyOp23
 70
     1
102
RTVSPropertyOp24
 70
     1
102
RTVSPropertyOp25
 70
     1
102
RTVSPropertyOp26
 70
     1
102
RTVSPropertyOp27
 70
     1
102
RTVSPropertyOp28
 70
     1
102
RTVSPropertyOp29
 70
     1
102
RTVSPropertyOp30
 70
     1
102
RTVSPropertyOp31
 70
     1
102
RTVSPropertyOp32
 70
     1
  0
XRECORD
  5
3B9
102
{ACAD_REACTORS
330
3B8
102
}
330
3B8
100
AcDbXrecord
280
     1
102
RTVSPropertyOp0
 70
     1
102
RTVSPropertyOp1
 70
     1
102
RTVSPropertyOp2
 70
     1
102
RTVSPropertyOp3
 70
     1
102
RTVSPropertyOp4
 70
     1
102
RTVSPropertyOp5
 70
     1
102
RTVSPropertyOp6
 70
     1
102
RTVSPropertyOp7
 70
     1
102
RTVSPropertyOp8
 70
     1
102
RTVSPropertyOp9
 70
     1
102
RTVSPropertyOp10
 70
     1
102
RTVSPropertyOp11
 70
     1
102
RTVSPropertyOp12
 70
     1
102
RTVSPropertyOp13
 70
     1
102
RTVSPropertyOp14
 70
     1
102
RTVSPropertyOp15
 70
     1
102
RTVSPropertyOp16
 70
     1
102
RTVSPropertyOp17
 70
     1
102
RTVSPropertyOp18
 70
     1
102
RTVSPropertyOp19
 70
     1
102
RTVSPropertyOp20
 70
     1
102
RTVSPropertyOp21
 70
     1
102
RTVSPropertyOp22
 70
     1
102
RTVSPropertyOp23
 70
     1
102
RTVSPropertyOp24
 70
     1
102
RTVSPropertyOp25
 70
     1
102
RTVSPropertyOp26
 70
     1
102
RTVSPropertyOp27
 70
     1
102
RTVSPropertyOp28
 70
     1
102
RTVSPropertyOp29
 70
     1
102
RTVSPropertyOp30
 70
     1
102
RTVSPropertyOp31
 70
     1
102
RTVSPropertyOp32
 70
     1
  0
ENDSEC
  0
EOF
